(Rock) Queen - The Platinum Collection - Greatest Hits - 3 CD - 2000, FLAC (image+.cue), lossless

 
Автор Сообщение

sergej644 ®

Пол:

Стаж: 4 года 11 месяцев

Сообщений: 6045

Откуда: Soviet Union



Награды: Нет

Торрент-статистика

Создавать темы 11-Дек-2014 18:38

[Цитировать]

Queen - The Platinum Collection - Greatest Hits - 3 CD
Жанр: Rock
Страна-производитель диска: Australia
Год издания: 2000
Издатель (лейбл): Parlophone
Номер по каталогу: 7243 5 29883 2 7
Страна: The Great Britain
Аудиокодек: FLAC (*.flac)
Тип рипа: image+.cue
Битрейт аудио: lossless
Продолжительность: 58:27+1:15:58+1:13:49=3:28:14
Источник (релизер): Internet
Наличие сканов в содержимом раздачи: да
Треклист:

Disc 1

1. Bohemian Rhapsody
2. Another One Bites The Dust
3. Killer Queen
4. Fat Bottomed Girls
5. Bicycle Race
6. You're My Best Friend
7. Don't Stop Me Now
8. Save Me
9. Crazy Little Thing Called Love
10. Somebody To Love
11. Now I'm Here
12. Good Old-Fashioned Lover Boy
13. Play The Game
14. Flash
15. Seven Seas Of Rhye
16. We Will Rock You
17. We Are The Champions

Disc 2

1. Kind Of Magic
2. Under Pressure
3. Radio Ga Ga
4. I Want It All
5. I Want To Break Free
6. Innuendo
7. It's A Hard Life
8. Breakthru
9. Who Wants To Live Forever
10. Headlong
11. Miracle
12. I'm Going Slightly Mad
13. Invisible Man
14. Hammer To Fall
15. Friends Will Be Friends
16. Show Must Go On
17. One Vision

Disc 3

1. Show Must Go On
2. Under Pressure
3. Barcelona
4. Too Much Love Will Kill You
5. Somebody To Love
6. You Don't Fool Me
7. Heaven For Everyone
8. Las Palabras De Amor
9. Driven By You
10. Living On My Own
11. Let Me Live
12. Great Pretender
13. Princess Of Universe
14. Another Ones Bites The Dust
15. No One But You
16. These Are The Days Of Our Lives
17. Thank God It's Christmas
-

Лог создания рипа

Disc 1

Exact Audio Copy V0.99 prebeta 5 from 4. May 2009
EAC extraction logfile from 19. July 2010, 17:01
Queen / The Platinum Collection: Greatest Hits I
Used drive : Optiarc DVD RW AD-7203S Adapter: 3 ID: 1
Read mode : Secure
Utilize accurate stream : Yes
Defeat audio cache : Yes
Make use of C2 pointers : No
Read offset correction : 48
Overread into Lead-In and Lead-Out : No
Fill up missing offset samples with silence : Yes
Delete leading and trailing silent blocks : No
Null samples used in CRC calculations : Yes
Used interface : Installed external ASPI interface
Used output format : Internal WAV Routines
Sample format : 44.100 Hz; 16 Bit; Stereo
TOC of the extracted CD
Track | Start | Length | Start sector | End sector
---------------------------------------------------------
1 | 0:00.00 | 5:58.22 | 0 | 26871
2 | 5:58.22 | 3:36.68 | 26872 | 43139
3 | 9:35.15 | 3:02.00 | 43140 | 56789
4 | 12:37.15 | 3:24.42 | 56790 | 72131
5 | 16:01.57 | 3:03.60 | 72132 | 85916
6 | 19:05.42 | 2:52.13 | 85917 | 98829
7 | 21:57.55 | 3:31.55 | 98830 | 114709
8 | 25:29.35 | 3:48.45 | 114710 | 131854
9 | 29:18.05 | 2:43.62 | 131855 | 144141
10 | 32:01.67 | 4:57.50 | 144142 | 166466
11 | 36:59.42 | 4:15.18 | 166467 | 185609
12 | 41:14.60 | 2:55.62 | 185610 | 198796
13 | 44:10.47 | 3:33.23 | 198797 | 214794
14 | 47:43.70 | 2:48.32 | 214795 | 227426
15 | 50:32.27 | 2:50.35 | 227427 | 240211
16 | 53:22.62 | 2:02.58 | 240212 | 249419
17 | 55:25.45 | 3:01.30 | 249420 | 263024
Range status and errors
Selected range
Filename E:\Audio in lossless\$ QUEEN $\Queen © 2000 - The Platinum Collection -Greatest Hits I, II & III (3CD)\Queen - The Platinum Collection Greatest Hits I.wav
Peak level 97.7 %
Range quality 100.0 %
Copy CRC ADFB8A4F
Copy OK
No errors occurred
AccurateRip summary
Track 1 accurately ripped (confidence 2) [F7C132AA]
Track 2 accurately ripped (confidence 2) [CB0594B4]
Track 3 accurately ripped (confidence 2) [773C32ED]
Track 4 accurately ripped (confidence 2) [8443BE34]
Track 5 accurately ripped (confidence 2) [67209DC4]
Track 6 accurately ripped (confidence 2) [1CE3CF37]
Track 7 accurately ripped (confidence 2) [78DE5600]
Track 8 accurately ripped (confidence 2) [FCAD39BA]
Track 9 accurately ripped (confidence 2) [8A747B1C]
Track 10 accurately ripped (confidence 2) [E67C3DBC]
Track 11 accurately ripped (confidence 2) [B44EEC7C]
Track 12 accurately ripped (confidence 2) [DC417165]
Track 13 accurately ripped (confidence 2) [E9FE48A3]
Track 14 accurately ripped (confidence 2) [76DF9136]
Track 15 accurately ripped (confidence 2) [20E66A4B]
Track 16 accurately ripped (confidence 2) [9BAF3DAA]
Track 17 accurately ripped (confidence 2) [6D528388]
All tracks accurately ripped
End of status report

Disc 2

Exact Audio Copy V0.99 prebeta 5 from 4. May 2009
EAC extraction logfile from 19. July 2010, 17:53
Queen / The Platinum Collection: Greatest Hits II
Used drive : Optiarc DVD RW AD-7203S Adapter: 3 ID: 1
Read mode : Secure
Utilize accurate stream : Yes
Defeat audio cache : Yes
Make use of C2 pointers : No
Read offset correction : 48
Overread into Lead-In and Lead-Out : No
Fill up missing offset samples with silence : Yes
Delete leading and trailing silent blocks : No
Null samples used in CRC calculations : Yes
Used interface : Installed external ASPI interface
Used output format : Internal WAV Routines
Sample format : 44.100 Hz; 16 Bit; Stereo
TOC of the extracted CD
Track | Start | Length | Start sector | End sector
---------------------------------------------------------
1 | 0:00.32 | 4:22.38 | 32 | 19719
2 | 4:22.70 | 3:56.57 | 19720 | 37476
3 | 8:19.52 | 5:43.30 | 37477 | 63231
4 | 14:03.07 | 4:01.68 | 63232 | 81374
5 | 18:05.00 | 4:18.55 | 81375 | 100779
6 | 22:23.55 | 6:27.52 | 100780 | 129856
7 | 28:51.32 | 4:09.45 | 129857 | 148576
8 | 33:01.02 | 4:09.13 | 148577 | 167264
9 | 37:10.15 | 4:57.20 | 167265 | 189559
10 | 42:07.35 | 4:33.17 | 189560 | 210051
11 | 46:40.52 | 4:54.68 | 210052 | 232169
12 | 51:35.45 | 4:07.72 | 232170 | 250766
13 | 55:43.42 | 3:58.45 | 250767 | 268661
14 | 59:42.12 | 3:40.38 | 268662 | 285199
15 | 63:22.50 | 4:08.67 | 285200 | 303866
16 | 67:31.42 | 4:23.48 | 303867 | 323639
17 | 71:55.15 | 4:02.52 | 323640 | 341841
Range status and errors
Selected range
Filename E:\Audio in lossless\$ QUEEN $\Queen © 2000 - The Platinum Collection -Greatest Hits I, II & III (3CD)\Queen - The Platinum Collection Greatest Hits II.wav
Peak level 100.0 %
Range quality 100.0 %
Copy CRC 81B11A0B
Copy OK
No errors occurred
AccurateRip summary
Track 1 cannot be verified as accurate (confidence 200) [D21E7130], AccurateRip returned [084C96B0]
Track 2 cannot be verified as accurate (confidence 200) [2FEC6294], AccurateRip returned [63AB170E]
Track 3 cannot be verified as accurate (confidence 200) [EE1DD313], AccurateRip returned [95F90CFD]
Track 4 cannot be verified as accurate (confidence 200) [6E5B0749], AccurateRip returned [2DDE43DA]
Track 5 cannot be verified as accurate (confidence 200) [6A210156], AccurateRip returned [6A44CF43]
Track 6 cannot be verified as accurate (confidence 200) [A3431743], AccurateRip returned [97616A4F]
Track 7 cannot be verified as accurate (confidence 200) [8B20045C], AccurateRip returned [F6BFCD8A]
Track 8 cannot be verified as accurate (confidence 200) [A8D30D2E], AccurateRip returned [D2676CCF]
Track 9 cannot be verified as accurate (confidence 200) [974A3AA0], AccurateRip returned [D43C8F47]
Track 10 cannot be verified as accurate (confidence 200) [6DC8462B], AccurateRip returned [AE21C0EB]
Track 11 cannot be verified as accurate (confidence 200) [892289FB], AccurateRip returned [2140B7B3]
Track 12 cannot be verified as accurate (confidence 200) [8E59F635], AccurateRip returned [B8B947CF]
Track 13 cannot be verified as accurate (confidence 200) [0A0BC1DD], AccurateRip returned [C7E922C3]
Track 14 cannot be verified as accurate (confidence 200) [DCE6BC75], AccurateRip returned [D995E3DB]
Track 15 cannot be verified as accurate (confidence 200) [CEA3FCB4], AccurateRip returned [783299DD]
Track 16 cannot be verified as accurate (confidence 200) [23FF7429], AccurateRip returned [0DFACCD6]
Track 17 cannot be verified as accurate (confidence 200) [37AFDFC0], AccurateRip returned [3E65B1E0]
No tracks could be verified as accurate
You may have a different pressing from the one(s) in the database
End of status report

Disc 3

Exact Audio Copy V0.99 prebeta 5 from 4. May 2009
EAC extraction logfile from 19. July 2010, 20:26
Queen / The Platinum Collection: Greatest Hits III
Used drive : Optiarc DVD RW AD-7203S Adapter: 3 ID: 1
Read mode : Secure
Utilize accurate stream : Yes
Defeat audio cache : Yes
Make use of C2 pointers : No
Read offset correction : 48
Overread into Lead-In and Lead-Out : No
Fill up missing offset samples with silence : Yes
Delete leading and trailing silent blocks : No
Null samples used in CRC calculations : Yes
Used interface : Installed external ASPI interface
Used output format : Internal WAV Routines
Sample format : 44.100 Hz; 16 Bit; Stereo
TOC of the extracted CD
Track | Start | Length | Start sector | End sector
---------------------------------------------------------
1 | 0:00.00 | 4:35.27 | 0 | 20651
2 | 4:35.27 | 4:08.50 | 20652 | 39301
3 | 8:44.02 | 4:25.33 | 39302 | 59209
4 | 13:09.35 | 4:18.60 | 59210 | 78619
5 | 17:28.20 | 5:07.27 | 78620 | 101671
6 | 22:35.47 | 5:22.50 | 101672 | 125871
7 | 27:58.22 | 4:37.45 | 125872 | 146691
8 | 32:35.67 | 4:29.15 | 146692 | 166881
9 | 37:05.07 | 4:09.60 | 166882 | 185616
10 | 41:14.67 | 3:37.15 | 185617 | 201906
11 | 44:52.07 | 4:45.58 | 201907 | 223339
12 | 49:37.65 | 3:26.00 | 223340 | 238789
13 | 53:03.65 | 3:31.47 | 238790 | 254661
14 | 56:35.37 | 4:20.63 | 254662 | 274224
15 | 60:56.25 | 4:11.25 | 274225 | 293074
16 | 65:07.50 | 4:22.15 | 293075 | 312739
17 | 69:29.65 | 4:19.17 | 312740 | 332181
Range status and errors
Selected range
Filename E:\Audio in lossless\$ QUEEN $\Queen © 2000 - The Platinum Collection -Greatest Hits I, II & III (3CD)\Queen - The Platinum Collection Greatest Hits III.wav
Peak level 97.9 %
Range quality 100.0 %
Copy CRC 00C2AEBC
Copy OK
No errors occurred
AccurateRip summary
Track 1 cannot be verified as accurate (confidence 200) [78663994], AccurateRip returned [E7506A6A]
Track 2 cannot be verified as accurate (confidence 200) [8EEAABF9], AccurateRip returned [A93653F5]
Track 3 cannot be verified as accurate (confidence 200) [4C6AAE79], AccurateRip returned [6480BDB9]
Track 4 cannot be verified as accurate (confidence 200) [84F7711C], AccurateRip returned [EDBE86D4]
Track 5 cannot be verified as accurate (confidence 200) [04987740], AccurateRip returned [6C05FD38]
Track 6 cannot be verified as accurate (confidence 200) [D3C939F5], AccurateRip returned [E12AE602]
Track 7 cannot be verified as accurate (confidence 200) [2C72E2BC], AccurateRip returned [D26D8A3F]
Track 8 cannot be verified as accurate (confidence 200) [08AEC095], AccurateRip returned [D1439781]
Track 9 cannot be verified as accurate (confidence 200) [13D9B5B1], AccurateRip returned [25238311]
Track 10 cannot be verified as accurate (confidence 200) [C4A2640E], AccurateRip returned [80163F24]
Track 11 cannot be verified as accurate (confidence 200) [2253BA11], AccurateRip returned [71BCCF33]
Track 12 cannot be verified as accurate (confidence 200) [6A6014A6], AccurateRip returned [7AD90CFE]
Track 13 cannot be verified as accurate (confidence 200) [FAA132AA], AccurateRip returned [0B8B6706]
Track 14 cannot be verified as accurate (confidence 200) [6DC775B3], AccurateRip returned [8C3F901F]
Track 15 cannot be verified as accurate (confidence 200) [5A088BA8], AccurateRip returned [7A617322]
Track 16 cannot be verified as accurate (confidence 200) [35B5F7E3], AccurateRip returned [106E8C12]
Track 17 cannot be verified as accurate (confidence 200) [3421EA34], AccurateRip returned [89B92635]
No tracks could be verified as accurate
You may have a different pressing from the one(s) in the database
End of status report

Содержание индексной карты (.CUE)

Disc 1

REM GENRE Rock
REM DATE 2000
REM DISCID E70DB311
REM COMMENT "Parlophone – 7243 5 29883 2 7"
CATALOG 0724352988327
PERFORMER "Queen"
TITLE "The Platinum Collection: Greatest Hits I"
FILE "Queen - The Platinum Collection Greatest Hits I.flac" WAVE
TRACK 01 AUDIO
TITLE "Bohemian Rhapsody"
PERFORMER "Queen"
INDEX 01 00:00:00
TRACK 02 AUDIO
TITLE "Another One Bites The Dust"
PERFORMER "Queen"
INDEX 00 05:57:22
INDEX 01 05:58:22
TRACK 03 AUDIO
TITLE "Killer Queen"
PERFORMER "Queen"
INDEX 00 09:34:15
INDEX 01 09:35:15
TRACK 04 AUDIO
TITLE "Fat Bottomed Girls"
PERFORMER "Queen"
INDEX 00 12:36:15
INDEX 01 12:37:15
TRACK 05 AUDIO
TITLE "Bicycle Race"
PERFORMER "Queen"
INDEX 00 16:00:57
INDEX 01 16:01:57
TRACK 06 AUDIO
TITLE "You're My Best Friend"
PERFORMER "Queen"
INDEX 00 19:04:25
INDEX 01 19:05:42
TRACK 07 AUDIO
TITLE "Don't Stop Me Now"
PERFORMER "Queen"
INDEX 00 21:56:55
INDEX 01 21:57:55
TRACK 08 AUDIO
TITLE "Save Me"
PERFORMER "Queen"
INDEX 00 25:28:25
INDEX 01 25:29:35
TRACK 09 AUDIO
TITLE "Crazy Little Thing Called Love"
PERFORMER "Queen"
INDEX 00 29:17:05
INDEX 01 29:18:05
TRACK 10 AUDIO
TITLE "Somebody To Love"
PERFORMER "Queen"
INDEX 00 32:00:67
INDEX 01 32:01:67
TRACK 11 AUDIO
TITLE "Now I'm Here"
PERFORMER "Queen"
INDEX 00 36:58:42
INDEX 01 36:59:42
TRACK 12 AUDIO
TITLE "Good Old-Fashioned Lover Boy"
PERFORMER "Queen"
INDEX 00 41:13:60
INDEX 01 41:14:60
TRACK 13 AUDIO
TITLE "Play The Game"
PERFORMER "Queen"
INDEX 00 44:09:47
INDEX 01 44:10:47
TRACK 14 AUDIO
TITLE "Flash"
PERFORMER "Queen"
INDEX 00 47:42:50
INDEX 01 47:43:70
TRACK 15 AUDIO
TITLE "Seven Seas Of Rhye"
PERFORMER "Queen"
INDEX 00 50:31:27
INDEX 01 50:32:27
TRACK 16 AUDIO
TITLE "We Will Rock You"
PERFORMER "Queen"
INDEX 00 53:21:62
INDEX 01 53:22:62
TRACK 17 AUDIO
TITLE "We Are The Champions"
PERFORMER "Queen"
INDEX 00 55:24:45
INDEX 01 55:25:45

Disc 2

REM GENRE Rock
REM DATE 2000
REM DISCID EC11CD11
REM COMMENT "Parlophone – 7243 5 29883 2 7"
CATALOG 0724352988327
PERFORMER "Queen"
TITLE "The Platinum Collection: Greatest Hits II"
FILE "Queen - The Platinum Collection Greatest Hits II.flac" WAVE
TRACK 01 AUDIO
TITLE "A Kind Of Magic"
PERFORMER "Queen"
INDEX 00 00:00:00
INDEX 01 00:00:32
TRACK 02 AUDIO
TITLE "Under Pressure"
PERFORMER "Queen"
INDEX 00 04:22:52
INDEX 01 04:22:70
TRACK 03 AUDIO
TITLE "Radio Ga Ga"
PERFORMER "Queen"
INDEX 00 08:19:50
INDEX 01 08:19:52
TRACK 04 AUDIO
TITLE "I Want It All"
PERFORMER "Queen"
INDEX 00 14:02:67
INDEX 01 14:03:07
TRACK 05 AUDIO
TITLE "I Want To Break Free"
PERFORMER "Queen"
INDEX 00 18:04:72
INDEX 01 18:05:00
TRACK 06 AUDIO
TITLE "Innuendo"
PERFORMER "Queen"
INDEX 00 22:23:12
INDEX 01 22:23:55
TRACK 07 AUDIO
TITLE "It's A Hard Life"
PERFORMER "Queen"
INDEX 00 28:51:30
INDEX 01 28:51:32
TRACK 08 AUDIO
TITLE "Breakthru"
PERFORMER "Queen"
INDEX 00 33:01:00
INDEX 01 33:01:02
TRACK 09 AUDIO
TITLE "Who Wants To Live Forever"
PERFORMER "Queen"
INDEX 00 37:10:12
INDEX 01 37:10:15
TRACK 10 AUDIO
TITLE "Headlong"
PERFORMER "Queen"
INDEX 00 42:06:60
INDEX 01 42:07:35
TRACK 11 AUDIO
TITLE "The Miracle"
PERFORMER "Queen"
INDEX 00 46:40:50
INDEX 01 46:40:52
TRACK 12 AUDIO
TITLE "I'm Going Slightly Mad"
PERFORMER "Queen"
INDEX 00 51:35:42
INDEX 01 51:35:45
TRACK 13 AUDIO
TITLE "The Invisible Man"
PERFORMER "Queen"
INDEX 00 55:43:40
INDEX 01 55:43:42
TRACK 14 AUDIO
TITLE "Hammer To Fall"
PERFORMER "Queen"
INDEX 00 59:41:52
INDEX 01 59:42:12
TRACK 15 AUDIO
TITLE "Friends Will Be Friends"
PERFORMER "Queen"
INDEX 00 63:22:47
INDEX 01 63:22:50
TRACK 16 AUDIO
TITLE "The Show Must Go On"
PERFORMER "Queen"
INDEX 00 67:31:40
INDEX 01 67:31:42
TRACK 17 AUDIO
TITLE "One Vision"
PERFORMER "Queen"
INDEX 00 71:55:12
INDEX 01 71:55:15

Disc 3

REM GENRE Rock
REM DATE 2000
REM DISCID 1B114D11
REM COMMENT "Parlophone – 7243 5 29883 2 7"
CATALOG 0724352988327
PERFORMER "Queen"
TITLE "The Platinum Collection: Greatest Hits III"
FILE "Queen - The Platinum Collection Greatest Hits III.flac" WAVE
TRACK 01 AUDIO
TITLE "The Show Must Go On (Queen + Elton John)"
PERFORMER "Queen"
INDEX 01 00:00:00
TRACK 02 AUDIO
TITLE "Under Pressure (Queen + David Bowie) (Rah Mix)"
PERFORMER "Queen"
INDEX 01 04:35:27
TRACK 03 AUDIO
TITLE "Barcelona (Freddie Mercury + Montserrat Caballe) "
PERFORMER "Queen"
INDEX 01 08:44:02
TRACK 04 AUDIO
TITLE "Too Much Love Will Kill You "
PERFORMER "Queen"
INDEX 00 13:08:22
INDEX 01 13:09:35
TRACK 05 AUDIO
TITLE "Somebody To Love (Queen + George Michael)"
PERFORMER "Queen"
INDEX 01 17:28:20
TRACK 06 AUDIO
TITLE "You Don't Fool Me"
PERFORMER "Queen"
INDEX 00 22:35:15
INDEX 01 22:35:47
TRACK 07 AUDIO
TITLE "Heaven For Everyone"
PERFORMER "Queen"
INDEX 01 27:58:22
TRACK 08 AUDIO
TITLE "Las Palabras De Amor (The Words Of Love)"
PERFORMER "Queen"
INDEX 01 32:35:67
TRACK 09 AUDIO
TITLE "Driven By You (Queen + Brian May)"
PERFORMER "Queen"
INDEX 01 37:05:07
TRACK 10 AUDIO
TITLE "Living On My Own (Freddie Mercury)"
PERFORMER "Queen"
INDEX 00 41:14:65
INDEX 01 41:14:67
TRACK 11 AUDIO
TITLE "Let Me Live"
PERFORMER "Queen"
INDEX 00 44:51:30
INDEX 01 44:52:07
TRACK 12 AUDIO
TITLE "The Great Pretender"
PERFORMER "Queen"
INDEX 00 49:37:12
INDEX 01 49:37:65
TRACK 13 AUDIO
TITLE "Princes Of The Universe"
PERFORMER "Queen"
INDEX 00 53:02:72
INDEX 01 53:03:65
TRACK 14 AUDIO
TITLE "Another One Bites The Dust (Queen + Wyclef Jean)"
PERFORMER "Queen"
INDEX 00 56:35:10
INDEX 01 56:35:37
TRACK 15 AUDIO
TITLE "No-One But You (Only The Good Die Young)"
PERFORMER "Queen"
INDEX 01 60:56:25
TRACK 16 AUDIO
TITLE "These Are The Days Of Our Lives"
PERFORMER "Queen"
INDEX 01 65:07:50
TRACK 17 AUDIO
TITLE "Thank God It's Christmas"
PERFORMER "Queen"
INDEX 00 69:22:02
INDEX 01 69:29:65
-

Скриншот спектра частот

Disc 1

Disc 2

Disc 3

-

Значение foo_dr

Disc 1

foobar2000 1.1.18 / Dynamic Range Meter 1.1.1
log date: 2012-12-09 19:01:42
--------------------------------------------------------------------------------
Analyzed: Queen / The Platinum Collection: Greatest Hits I
--------------------------------------------------------------------------------
DR Peak RMS Duration Track
--------------------------------------------------------------------------------
DR11 -0.20 dB -16.28 dB 5:58 01-Bohemian Rhapsody
DR14 -0.20 dB -16.02 dB 3:37 02-Another One Bites The Dust
DR11 -0.20 dB -13.86 dB 3:02 03-Killer Queen
DR12 -0.20 dB -15.77 dB 3:25 04-Fat Bottomed Girls
DR9 -0.20 dB -11.54 dB 3:04 05-Bicycle Race
DR11 -0.20 dB -13.23 dB 2:52 06-You're My Best Friend
DR9 -0.20 dB -11.52 dB 3:32 07-Don't Stop Me Now
DR10 -0.58 dB -14.61 dB 3:49 08-Save Me
DR13 -0.20 dB -14.96 dB 2:44 09-Crazy Little Thing Called Love
DR10 -0.20 dB -13.42 dB 4:58 10-Somebody To Love
DR12 -0.21 dB -15.46 dB 4:15 11-Now I'm Here
DR10 -0.54 dB -13.81 dB 2:56 12-Good Old-Fashioned Lover Boy
DR11 -0.20 dB -13.37 dB 3:33 13-Play The Game
DR11 -0.66 dB -15.37 dB 2:48 14-Flash
DR11 -0.21 dB -13.93 dB 2:50 15-Seven Seas Of Rhye
DR10 -0.20 dB -12.58 dB 2:03 16-We Will Rock You
DR7 -0.20 dB -11.10 dB 3:01 17-We Are The Champions
--------------------------------------------------------------------------------
Number of tracks: 17
Official DR value: DR11
Samplerate: 44100 Hz
Channels: 2
Bits per sample: 16
Bitrate: 834 kbps
Codec: FLAC
================================================================================

Disc 2

foobar2000 1.1.18 / Dynamic Range Meter 1.1.1
log date: 2012-12-09 19:20:54
--------------------------------------------------------------------------------
Analyzed: Queen / The Platinum Collection: Greatest Hits II
--------------------------------------------------------------------------------
DR Peak RMS Duration Track
--------------------------------------------------------------------------------
DR15 0.00 dB -17.36 dB 4:23 01-A Kind Of Magic
DR11 -0.30 dB -15.75 dB 3:57 02-Under Pressure
DR12 -0.20 dB -15.73 dB 5:43 03-Radio Ga Ga
DR11 0.00 dB -13.27 dB 4:02 04-I Want It All
DR11 -1.80 dB -15.50 dB 4:19 05-I Want To Break Free
DR13 -0.36 dB -16.54 dB 6:28 06-Innuendo
DR11 -1.38 dB -14.72 dB 4:10 07-It's A Hard Life
DR13 -0.20 dB -15.01 dB 4:09 08-Breakthru
DR13 -0.03 dB -18.56 dB 4:57 09-Who Wants To Live Forever
DR14 0.00 dB -15.20 dB 4:33 10-Headlong
DR12 0.00 dB -13.54 dB 4:55 11-The Miracle
DR12 -0.44 dB -14.05 dB 4:08 12-I'm Going Slightly Mad
DR13 0.00 dB -14.96 dB 3:59 13-The Invisible Man
DR11 -1.08 dB -13.79 dB 3:41 14-Hammer To Fall
DR11 -0.41 dB -14.81 dB 4:09 15-Friends Will Be Friends
DR11 -0.48 dB -14.41 dB 4:24 16-The Show Must Go On
DR12 0.00 dB -13.81 dB 4:03 17-One Vision
--------------------------------------------------------------------------------
Number of tracks: 17
Official DR value: DR12
Samplerate: 44100 Hz
Channels: 2
Bits per sample: 16
Bitrate: 873 kbps
Codec: FLAC
================================================================================

Disc 3

foobar2000 1.1.18 / Dynamic Range Meter 1.1.1
log date: 2012-12-09 19:23:36
--------------------------------------------------------------------------------
Analyzed: Queen / The Platinum Collection: Greatest Hits III
--------------------------------------------------------------------------------
DR Peak RMS Duration Track
--------------------------------------------------------------------------------
DR8 -0.18 dB -10.11 dB 4:35 01-The Show Must Go On (Queen + Elton John)
DR8 -0.18 dB -9.66 dB 4:09 02-Under Pressure (Queen + David Bowie) (Rah Mix)
DR8 -0.18 dB -11.74 dB 4:25 03-Barcelona (Freddie Mercury + Montserrat Caballe)
DR8 -0.18 dB -12.00 dB 4:19 04-Too Much Love Will Kill You
DR8 -0.18 dB -10.17 dB 5:07 05-Somebody To Love (Queen + George Michael)
DR8 -0.18 dB -10.01 dB 5:23 06-You Don't Fool Me
DR8 -0.18 dB -11.77 dB 4:38 07-Heaven For Everyone
DR8 -0.18 dB -10.94 dB 4:29 08-Las Palabras De Amor (The Words Of Love)
DR8 -0.18 dB -10.09 dB 4:10 09-Driven By You (Queen + Brian May)
DR8 -0.18 dB -9.65 dB 3:37 10-Living On My Own (Freddie Mercury)
DR8 -0.18 dB -10.38 dB 4:46 11-Let Me Live
DR9 -0.18 dB -12.69 dB 3:26 12-The Great Pretender
DR8 -0.18 dB -9.71 dB 3:32 13-Princes Of The Universe
DR7 -1.03 dB -9.40 dB 4:21 14-Another One Bites The Dust (Queen + Wyclef Jean)
DR7 -1.07 dB -10.77 dB 4:11 15-No-One But You (Only The Good Die Young)
DR9 -0.18 dB -11.32 dB 4:22 16-These Are The Days Of Our Lives
DR9 -0.18 dB -11.64 dB 4:19 17-Thank God It's Christmas
--------------------------------------------------------------------------------
Number of tracks: 17
Official DR value: DR8
Samplerate: 44100 Hz
Channels: 2
Bits per sample: 16
Bitrate: 935 kbps
Codec: FLAC
================================================================================
[Профиль] [ЛС]
Показать сообщения:    

Текущее время: Сегодня 16:21

Часовой пояс: GMT



Вы не можете начинать темы
Вы не можете отвечать на сообщения
Вы не можете редактировать свои сообщения
Вы не можете удалять свои сообщения
Вы не можете голосовать в опросах
Вы не можете прикреплять файлы к сообщениям
Вы не можете скачивать файлы