(Rock)Queen - Live At The Rainbow '74 (2CD)2014,[FLAC (tracks +*cue), lossless]

 
Автор Сообщение

sergej644 ®

Пол:

Стаж: 4 года 11 месяцев

Сообщений: 6038

Откуда: Soviet Union



Награды: Нет

Торрент-статистика

Создавать темы 21-Сен-2014 13:19

[Цитировать]

--Queen - Live At The Rainbow '74 (2CD)
Страна: UK
Страна производитель диска: UK
Год выпуска: 2014
Лейбл: Virgin EMI Records
Номер по каталогу: 0602537910687
Жанр: Rock
Формат: FLAC
тип рипа: (tracks + *cue)
Битрейт аудио: Lossless
Продолжительность: 02:24:10

CD 1 Queen II Tour Live at the Rainbow, March ’74 | 01:04:29

01. Procession (01:14)
02. Father To Son (06:07)
03. Ogre Battle (05:26)
04. Son and Daughter (03:29)
05. Guitar Solo (02:24)
06. Son and Daughter (Reprise) (02:01)
07. White Queen (As It Began) (05:48)
08. Great King Rat (07:04)
09. The Fairy Feller's Master-Stroke (02:52)
10. Keep Yourself Alive (02:22)
11. Drum Solo (00:27)
12. Keep Yourself Alive (Reprise) (01:22)
13. Seven Seas of Rhye (03:09)
14. Modern Times Rock 'N' Roll (02:40)
15. Jailhouse Rock, Stupid Cupid, Be Bop A Lula (Medley) (04:31)
16. Liar (08:27)
17. See What A Fool I’ve Been (04:58)

лог создания рипа

Exact Audio Copy V1.0 beta 3 from 29. August 2011
EAC extraction logfile from 12. September 2014, 22:20
Queen / Live at the Rainbow '74
Used drive  : PLEXTOR DVDR   PX-891SA   Adapter: 1  ID: 0
Read mode               : Secure
Utilize accurate stream : Yes
Defeat audio cache      : Yes
Make use of C2 pointers : No
Read offset correction                      : 6
Overread into Lead-In and Lead-Out          : No
Fill up missing offset samples with silence : Yes
Delete leading and trailing silent blocks   : No
Null samples used in CRC calculations       : Yes
Used interface                              : Native Win32 interface for Win NT & 2000
Gap handling                                : Appended to previous track
Used output format              : User Defined Encoder
Selected bitrate                : 1024 kBit/s
Quality                         : High
Add ID3 tag                     : No
Command line compressor         : C:\Program Files (x86)\Exact Audio Copy\FLAC\FLAC.EXE
Additional command line options : -0 -V -T "ARTIST=%artist%" -T "TITLE=%title%" -T "ALBUM=%albumtitle%" -T "DATE=%year%" -T "TRACKNUMBER=%tracknr%" -T "TOTALTRACKS=%numtracks%" -T "GENRE=%genre%" -T "COMMENT=Naftamusic Release!" %source%
TOC of the extracted CD
     Track |   Start  |  Length  | Start sector | End sector
    ---------------------------------------------------------
        1  |  0:00.00 |  1:14.02 |         0    |     5551
        2  |  1:14.02 |  6:07.17 |      5552    |    33093
        3  |  7:21.19 |  5:26.48 |     33094    |    57591
        4  | 12:47.67 |  3:29.72 |     57592    |    73338
        5  | 16:17.64 |  2:24.60 |     73339    |    84198
        6  | 18:42.49 |  2:01.55 |     84199    |    93328
        7  | 20:44.29 |  5:48.30 |     93329    |   119458
        8  | 26:32.59 |  7:04.05 |    119459    |   151263
        9  | 33:36.64 |  2:52.18 |    151264    |   164181
       10  | 36:29.07 |  2:22.32 |    164182    |   174863
       11  | 38:51.39 |  0:27.33 |    174864    |   176921
       12  | 39:18.72 |  1:22.68 |    176922    |   183139
       13  | 40:41.65 |  3:09.64 |    183140    |   197378
       14  | 43:51.54 |  2:40.43 |    197379    |   209421
       15  | 46:32.22 |  4:31.47 |    209422    |   229793
       16  | 51:03.69 |  8:27.56 |    229794    |   267874
       17  | 59:31.50 |  4:58.12 |    267875    |   290236
Track  1
     Filename E:\Nafta Releases\Queen - Live at the Rainbow 74 (2CD 2014)[FLAC] - Naftamusic\CD 1 QUEEN II TOUR Live at the Rainbow, March ’74\01 - Procession.wav
     Pre-gap length  0:00:02.00
     Peak level 96.2 %
     Extraction speed 0.7 X
     Track quality 99.8 %
     Test CRC 185BE0E0
     Copy CRC 185BE0E0
     Accurately ripped (confidence 1)  [EC02ADA0]  (AR v1)
     Copy OK
Track  2
     Filename E:\Nafta Releases\Queen - Live at the Rainbow 74 (2CD 2014)[FLAC] - Naftamusic\CD 1 QUEEN II TOUR Live at the Rainbow, March ’74\02 - Father To Son.wav
     Peak level 100.0 %
     Extraction speed 2.1 X
     Track quality 100.0 %
     Test CRC F07D019F
     Copy CRC F07D019F
     Accurately ripped (confidence 1)  [BB43D7BE]  (AR v1)
     Copy OK
Track  3
     Filename E:\Nafta Releases\Queen - Live at the Rainbow 74 (2CD 2014)[FLAC] - Naftamusic\CD 1 QUEEN II TOUR Live at the Rainbow, March ’74\03 - Ogre Battle.wav
     Peak level 100.0 %
     Extraction speed 1.9 X
     Track quality 99.9 %
     Test CRC F441B1E8
     Copy CRC F441B1E8
     Accurately ripped (confidence 1)  [14BED5FB]  (AR v1)
     Copy OK
Track  4
     Filename E:\Nafta Releases\Queen - Live at the Rainbow 74 (2CD 2014)[FLAC] - Naftamusic\CD 1 QUEEN II TOUR Live at the Rainbow, March ’74\04 - Son and Daughter.wav
     Peak level 100.0 %
     Extraction speed 2.5 X
     Track quality 100.0 %
     Test CRC 75EB3F83
     Copy CRC 75EB3F83
     Accurately ripped (confidence 1)  [C5AEBB80]  (AR v1)
     Copy OK
Track  5
     Filename E:\Nafta Releases\Queen - Live at the Rainbow 74 (2CD 2014)[FLAC] - Naftamusic\CD 1 QUEEN II TOUR Live at the Rainbow, March ’74\05 - Guitar Solo.wav
     Peak level 97.4 %
     Extraction speed 2.4 X
     Track quality 100.0 %
     Test CRC 20AD47A5
     Copy CRC 20AD47A5
     Accurately ripped (confidence 1)  [AC782005]  (AR v1)
     Copy OK
Track  6
     Filename E:\Nafta Releases\Queen - Live at the Rainbow 74 (2CD 2014)[FLAC] - Naftamusic\CD 1 QUEEN II TOUR Live at the Rainbow, March ’74\06 - Son and Daughter (Reprise).wav
     Peak level 100.0 %
     Extraction speed 2.4 X
     Track quality 100.0 %
     Test CRC 51B02065
     Copy CRC 51B02065
     Accurately ripped (confidence 1)  [91FBF335]  (AR v1)
     Copy OK
Track  7
     Filename E:\Nafta Releases\Queen - Live at the Rainbow 74 (2CD 2014)[FLAC] - Naftamusic\CD 1 QUEEN II TOUR Live at the Rainbow, March ’74\07 - White Queen (As It Began).wav
     Peak level 100.0 %
     Extraction speed 3.0 X
     Track quality 100.0 %
     Test CRC 5B3A68CA
     Copy CRC 5B3A68CA
     Accurately ripped (confidence 1)  [02B20544]  (AR v1)
     Copy OK
Track  8
     Filename E:\Nafta Releases\Queen - Live at the Rainbow 74 (2CD 2014)[FLAC] - Naftamusic\CD 1 QUEEN II TOUR Live at the Rainbow, March ’74\08 - Great King Rat.wav
     Peak level 100.0 %
     Extraction speed 3.3 X
     Track quality 100.0 %
     Test CRC B6D29EC5
     Copy CRC B6D29EC5
     Accurately ripped (confidence 1)  [7BBA38E5]  (AR v1)
     Copy OK
Track  9
     Filename E:\Nafta Releases\Queen - Live at the Rainbow 74 (2CD 2014)[FLAC] - Naftamusic\CD 1 QUEEN II TOUR Live at the Rainbow, March ’74\09 - The Fairy Feller's Master-Stroke.wav
     Peak level 100.0 %
     Extraction speed 3.1 X
     Track quality 100.0 %
     Test CRC 58D9A111
     Copy CRC 58D9A111
     Accurately ripped (confidence 1)  [91FE1E6B]  (AR v1)
     Copy OK
Track 10
     Filename E:\Nafta Releases\Queen - Live at the Rainbow 74 (2CD 2014)[FLAC] - Naftamusic\CD 1 QUEEN II TOUR Live at the Rainbow, March ’74\10 - Keep Yourself Alive.wav
     Peak level 100.0 %
     Extraction speed 1.9 X
     Track quality 99.9 %
     Test CRC 2B856DBA
     Copy CRC 2B856DBA
     Accurately ripped (confidence 1)  [9DEE56D4]  (AR v1)
     Copy OK
Track 11
     Filename E:\Nafta Releases\Queen - Live at the Rainbow 74 (2CD 2014)[FLAC] - Naftamusic\CD 1 QUEEN II TOUR Live at the Rainbow, March ’74\11 - Drum Solo.wav
     Peak level 100.0 %
     Extraction speed 1.6 X
     Track quality 100.0 %
     Test CRC F2B015D6
     Copy CRC F2B015D6
     Accurately ripped (confidence 1)  [DF7E5093]  (AR v1)
     Copy OK
Track 12
     Filename E:\Nafta Releases\Queen - Live at the Rainbow 74 (2CD 2014)[FLAC] - Naftamusic\CD 1 QUEEN II TOUR Live at the Rainbow, March ’74\12 - Keep Yourself Alive (Reprise).wav
     Peak level 100.0 %
     Extraction speed 2.7 X
     Track quality 100.0 %
     Test CRC AB03D92A
     Copy CRC AB03D92A
     Accurately ripped (confidence 1)  [50A79897]  (AR v1)
     Copy OK
Track 13
     Filename E:\Nafta Releases\Queen - Live at the Rainbow 74 (2CD 2014)[FLAC] - Naftamusic\CD 1 QUEEN II TOUR Live at the Rainbow, March ’74\13 - Seven Seas of Rhye.wav
     Peak level 100.0 %
     Extraction speed 3.4 X
     Track quality 100.0 %
     Test CRC AA923B8A
     Copy CRC AA923B8A
     Accurately ripped (confidence 1)  [138DD737]  (AR v1)
     Copy OK
Track 14
     Filename E:\Nafta Releases\Queen - Live at the Rainbow 74 (2CD 2014)[FLAC] - Naftamusic\CD 1 QUEEN II TOUR Live at the Rainbow, March ’74\14 - Modern Times Rock 'N' Roll.wav
     Peak level 100.0 %
     Extraction speed 3.3 X
     Track quality 100.0 %
     Test CRC 0A7F0EFA
     Copy CRC 0A7F0EFA
     Accurately ripped (confidence 1)  [BB46FCC9]  (AR v1)
     Copy OK
Track 15
     Filename E:\Nafta Releases\Queen - Live at the Rainbow 74 (2CD 2014)[FLAC] - Naftamusic\CD 1 QUEEN II TOUR Live at the Rainbow, March ’74\15 - Jailhouse Rock, Stupid Cupid, Be Bop A Lula (Medley).wav
     Peak level 100.0 %
     Extraction speed 3.8 X
     Track quality 100.0 %
     Test CRC CEB3484F
     Copy CRC CEB3484F
     Accurately ripped (confidence 1)  [54376AD4]  (AR v1)
     Copy OK
Track 16
     Filename E:\Nafta Releases\Queen - Live at the Rainbow 74 (2CD 2014)[FLAC] - Naftamusic\CD 1 QUEEN II TOUR Live at the Rainbow, March ’74\16 - Liar.wav
     Peak level 100.0 %
     Extraction speed 4.1 X
     Track quality 100.0 %
     Test CRC 67A1AE3E
     Copy CRC 67A1AE3E
     Accurately ripped (confidence 1)  [77D5B66A]  (AR v1)
     Copy OK
Track 17
     Filename E:\Nafta Releases\Queen - Live at the Rainbow 74 (2CD 2014)[FLAC] - Naftamusic\CD 1 QUEEN II TOUR Live at the Rainbow, March ’74\17 - See What A Fool I’ve Been.wav
     Peak level 100.0 %
     Extraction speed 3.2 X
     Track quality 99.9 %
     Test CRC D171E9EC
     Copy CRC D171E9EC
     Accurately ripped (confidence 1)  [DECF2D6B]  (AR v1)
     Copy OK
All tracks accurately ripped
No errors occurred
End of status report

содержание индексной карты *cue

REM GENRE Rock
REM DATE 2014
REM DISCID F00F1D11
REM COMMENT "ExactAudioCopy v1.0b3"
PERFORMER "Queen"
TITLE "Live at the Rainbow '74"
FILE "01 - Procession.wav" WAVE
  TRACK 01 AUDIO
    TITLE "Procession"
    PERFORMER "Queen"
    INDEX 01 00:00:00
FILE "02 - Father To Son.wav" WAVE
  TRACK 02 AUDIO
    TITLE "Father To Son"
    PERFORMER "Queen"
    INDEX 01 00:00:00
FILE "03 - Ogre Battle.wav" WAVE
  TRACK 03 AUDIO
    TITLE "Ogre Battle"
    PERFORMER "Queen"
    INDEX 01 00:00:00
FILE "04 - Son and Daughter.wav" WAVE
  TRACK 04 AUDIO
    TITLE "Son and Daughter"
    PERFORMER "Queen"
    INDEX 01 00:00:00
FILE "05 - Guitar Solo.wav" WAVE
  TRACK 05 AUDIO
    TITLE "Guitar Solo"
    PERFORMER "Queen"
    INDEX 01 00:00:00
FILE "06 - Son and Daughter (Reprise).wav" WAVE
  TRACK 06 AUDIO
    TITLE "Son and Daughter (Reprise)"
    PERFORMER "Queen"
    INDEX 01 00:00:00
FILE "07 - White Queen (As It Began).wav" WAVE
  TRACK 07 AUDIO
    TITLE "White Queen (As It Began)"
    PERFORMER "Queen"
    INDEX 01 00:00:00
FILE "08 - Great King Rat.wav" WAVE
  TRACK 08 AUDIO
    TITLE "Great King Rat"
    PERFORMER "Queen"
    INDEX 01 00:00:00
FILE "09 - The Fairy Feller's Master-Stroke.wav" WAVE
  TRACK 09 AUDIO
    TITLE "The Fairy Feller's Master-Stroke"
    PERFORMER "Queen"
    INDEX 01 00:00:00
FILE "10 - Keep Yourself Alive.wav" WAVE
  TRACK 10 AUDIO
    TITLE "Keep Yourself Alive"
    PERFORMER "Queen"
    INDEX 01 00:00:00
FILE "11 - Drum Solo.wav" WAVE
  TRACK 11 AUDIO
    TITLE "Drum Solo"
    PERFORMER "Queen"
    INDEX 01 00:00:00
FILE "12 - Keep Yourself Alive (Reprise).wav" WAVE
  TRACK 12 AUDIO
    TITLE "Keep Yourself Alive (Reprise)"
    PERFORMER "Queen"
    INDEX 01 00:00:00
FILE "13 - Seven Seas of Rhye.wav" WAVE
  TRACK 13 AUDIO
    TITLE "Seven Seas of Rhye"
    PERFORMER "Queen"
    INDEX 01 00:00:00
FILE "14 - Modern Times Rock 'N' Roll.wav" WAVE
  TRACK 14 AUDIO
    TITLE "Modern Times Rock 'N' Roll"
    PERFORMER "Queen"
    INDEX 01 00:00:00
FILE "15 - Jailhouse Rock, Stupid Cupid, Be Bop A Lula (Medley).wav" WAVE
  TRACK 15 AUDIO
    TITLE "Jailhouse Rock, Stupid Cupid, Be Bop A Lula (Medley)"
    PERFORMER "Queen"
    INDEX 01 00:00:00
FILE "16 - Liar.wav" WAVE
  TRACK 16 AUDIO
    TITLE "Liar"
    PERFORMER "Queen"
    INDEX 01 00:00:00
FILE "17 - See What A Fool I’ve Been.wav" WAVE
  TRACK 17 AUDIO
    TITLE "See What A Fool I’ve Been"
    PERFORMER "Queen"
    INDEX 01 00:00:00

CD 2 Sheek Heart Attack Tour Live at the Rainbow, November ’74 | 01:19:40

01. Procession (01:18)
02. Now I'm Here (04:57)
03. Ogre Battle (05:30)
04. Father To Son (05:53)
05. White Queen (05:33)
06. Flick Of The Wrist (04:06)
07. In The Lap Of The Gods (03:17)
08. Killer Queen (01:25)
09. The March Of The Black Queen (01:35)
10. Bring Back That Leroy Brown (01:40)
11. Son And Daughter (03:44)
12. Guitar Solo (04:41)
13. Son And Daughter (Reprise) (02:14)
14. Keep Yourself Alive (02:22)
15. Drum Solo (00:51)
16. Keep Yourself Alive (Reprise) (01:24)
17. Seven Seas Of Rhye (03:28)
18. Stone Cold Crazy (02:39)
19. Liar (08:39)
20. In The Lap Of The Gods...Revisited (04:09)
21. Big Spender (01:31)
22. Modern Times Rock'n'Roll (03:11)
23. Jailhouse Rock (04:07)
24. God Save The Queen (01:18)

лог создания рипа

Exact Audio Copy V1.0 beta 3 from 29. August 2011
EAC extraction logfile from 12. September 2014, 23:48
Queen / Live at the Rainbow '74
Used drive  : PLEXTOR DVDR   PX-891SA   Adapter: 1  ID: 0
Read mode               : Secure
Utilize accurate stream : Yes
Defeat audio cache      : Yes
Make use of C2 pointers : No
Read offset correction                      : 6
Overread into Lead-In and Lead-Out          : No
Fill up missing offset samples with silence : Yes
Delete leading and trailing silent blocks   : No
Null samples used in CRC calculations       : Yes
Used interface                              : Native Win32 interface for Win NT & 2000
Gap handling                                : Appended to previous track
Used output format              : User Defined Encoder
Selected bitrate                : 1024 kBit/s
Quality                         : High
Add ID3 tag                     : No
Command line compressor         : C:\Program Files (x86)\Exact Audio Copy\FLAC\FLAC.EXE
Additional command line options : -0 -V -T "ARTIST=%artist%" -T "TITLE=%title%" -T "ALBUM=%albumtitle%" -T "DATE=%year%" -T "TRACKNUMBER=%tracknr%" -T "TOTALTRACKS=%numtracks%" -T "GENRE=%genre%" -T "COMMENT=Naftamusic Release!" %source%
TOC of the extracted CD
     Track |   Start  |  Length  | Start sector | End sector
    ---------------------------------------------------------
        1  |  0:00.00 |  1:18.36 |         0    |     5885
        2  |  1:18.36 |  4:57.18 |      5886    |    28178
        3  |  6:15.54 |  5:30.24 |     28179    |    52952
        4  | 11:46.03 |  5:53.66 |     52953    |    79493
        5  | 17:39.69 |  5:33.66 |     79494    |   104534
        6  | 23:13.60 |  4:06.06 |    104535    |   122990
        7  | 27:19.66 |  3:17.03 |    122991    |   137768
        8  | 30:36.69 |  1:25.03 |    137769    |   144146
        9  | 32:01.72 |  1:35.21 |    144147    |   151292
       10  | 33:37.18 |  1:40.00 |    151293    |   158792
       11  | 35:17.18 |  3:44.54 |    158793    |   175646
       12  | 39:01.72 |  4:41.21 |    175647    |   196742
       13  | 43:43.18 |  2:14.12 |    196743    |   206804
       14  | 45:57.30 |  2:22.06 |    206805    |   217460
       15  | 48:19.36 |  0:51.00 |    217461    |   221285
       16  | 49:10.36 |  1:24.36 |    221286    |   227621
       17  | 50:34.72 |  3:28.20 |    227622    |   243241
       18  | 54:03.17 |  2:39.61 |    243242    |   255227
       19  | 56:43.03 |  8:39.15 |    255228    |   294167
       20  | 65:22.18 |  4:09.39 |    294168    |   312881
       21  | 69:31.57 |  1:31.24 |    312882    |   319730
       22  | 71:03.06 |  3:11.60 |    319731    |   334115
       23  | 74:14.66 |  4:07.57 |    334116    |   352697
       24  | 78:22.48 |  1:18.23 |    352698    |   358570
Track  1
     Filename E:\Nafta Releases\Queen - Live at the Rainbow 74 (2CD 2014)[FLAC] - Naftamusic\CD 2 SHEER HEART ATTACK TOUR Live at the Rainbow, November ’74\01 - Procession.wav
     Pre-gap length  0:00:02.00
     Peak level 64.3 %
     Extraction speed 1.6 X
     Track quality 100.0 %
     Test CRC 4025C4CA
     Copy CRC 4025C4CA
     Accurately ripped (confidence 1)  [81EFCCAB]  (AR v1)
     Copy OK
Track  2
     Filename E:\Nafta Releases\Queen - Live at the Rainbow 74 (2CD 2014)[FLAC] - Naftamusic\CD 2 SHEER HEART ATTACK TOUR Live at the Rainbow, November ’74\02 - Now I'm Here.wav
     Peak level 94.4 %
     Extraction speed 2.3 X
     Track quality 100.0 %
     Test CRC 1A560FA9
     Copy CRC 1A560FA9
     Accurately ripped (confidence 1)  [086BAEF8]  (AR v1)
     Copy OK
Track  3
     Filename E:\Nafta Releases\Queen - Live at the Rainbow 74 (2CD 2014)[FLAC] - Naftamusic\CD 2 SHEER HEART ATTACK TOUR Live at the Rainbow, November ’74\03 - Ogre Battle.wav
     Peak level 97.1 %
     Extraction speed 2.0 X
     Track quality 99.9 %
     Test CRC C194ECE0
     Copy CRC C194ECE0
     Accurately ripped (confidence 1)  [2AC15881]  (AR v1)
     Copy OK
Track  4
     Filename E:\Nafta Releases\Queen - Live at the Rainbow 74 (2CD 2014)[FLAC] - Naftamusic\CD 2 SHEER HEART ATTACK TOUR Live at the Rainbow, November ’74\04 - Father To Son.wav
     Peak level 94.9 %
     Extraction speed 2.3 X
     Track quality 99.9 %
     Test CRC 64C51DD8
     Copy CRC 64C51DD8
     Accurately ripped (confidence 1)  [48AD02BD]  (AR v1)
     Copy OK
Track  5
     Filename E:\Nafta Releases\Queen - Live at the Rainbow 74 (2CD 2014)[FLAC] - Naftamusic\CD 2 SHEER HEART ATTACK TOUR Live at the Rainbow, November ’74\05 - White Queen.wav
     Peak level 94.7 %
     Extraction speed 3.0 X
     Track quality 100.0 %
     Test CRC 0E8496B3
     Copy CRC 0E8496B3
     Accurately ripped (confidence 1)  [95456339]  (AR v1)
     Copy OK
Track  6
     Filename E:\Nafta Releases\Queen - Live at the Rainbow 74 (2CD 2014)[FLAC] - Naftamusic\CD 2 SHEER HEART ATTACK TOUR Live at the Rainbow, November ’74\06 - Flick Of The Wrist.wav
     Peak level 94.1 %
     Extraction speed 3.1 X
     Track quality 100.0 %
     Test CRC B5CC981F
     Copy CRC B5CC981F
     Accurately ripped (confidence 1)  [64FD8EFC]  (AR v1)
     Copy OK
Track  7
     Filename E:\Nafta Releases\Queen - Live at the Rainbow 74 (2CD 2014)[FLAC] - Naftamusic\CD 2 SHEER HEART ATTACK TOUR Live at the Rainbow, November ’74\07 - In The Lap Of The Gods.wav
     Peak level 94.4 %
     Extraction speed 3.1 X
     Track quality 100.0 %
     Test CRC E5FFAF27
     Copy CRC E5FFAF27
     Accurately ripped (confidence 1)  [226B6820]  (AR v1)
     Copy OK
Track  8
     Filename E:\Nafta Releases\Queen - Live at the Rainbow 74 (2CD 2014)[FLAC] - Naftamusic\CD 2 SHEER HEART ATTACK TOUR Live at the Rainbow, November ’74\08 - Killer Queen.wav
     Peak level 94.2 %
     Extraction speed 2.7 X
     Track quality 100.0 %
     Test CRC 1D31B565
     Copy CRC 1D31B565
     Accurately ripped (confidence 1)  [E7F1C4B9]  (AR v1)
     Copy OK
Track  9
     Filename E:\Nafta Releases\Queen - Live at the Rainbow 74 (2CD 2014)[FLAC] - Naftamusic\CD 2 SHEER HEART ATTACK TOUR Live at the Rainbow, November ’74\09 - The March Of The Black Queen.wav
     Peak level 94.8 %
     Extraction speed 1.6 X
     Track quality 99.8 %
     Test CRC 3CE200B1
     Copy CRC 3CE200B1
     Accurately ripped (confidence 1)  [1F64EDA5]  (AR v1)
     Copy OK
Track 10
     Filename E:\Nafta Releases\Queen - Live at the Rainbow 74 (2CD 2014)[FLAC] - Naftamusic\CD 2 SHEER HEART ATTACK TOUR Live at the Rainbow, November ’74\10 - Bring Back That Leroy Brown.wav
     Peak level 93.8 %
     Extraction speed 2.8 X
     Track quality 100.0 %
     Test CRC 1DAF97DA
     Copy CRC 1DAF97DA
     Accurately ripped (confidence 1)  [8564754C]  (AR v1)
     Copy OK
Track 11
     Filename E:\Nafta Releases\Queen - Live at the Rainbow 74 (2CD 2014)[FLAC] - Naftamusic\CD 2 SHEER HEART ATTACK TOUR Live at the Rainbow, November ’74\11 - Son And Daughter.wav
     Peak level 94.9 %
     Extraction speed 3.5 X
     Track quality 100.0 %
     Test CRC 27D69313
     Copy CRC 27D69313
     Accurately ripped (confidence 1)  [76FE5B79]  (AR v1)
     Copy OK
Track 12
     Filename E:\Nafta Releases\Queen - Live at the Rainbow 74 (2CD 2014)[FLAC] - Naftamusic\CD 2 SHEER HEART ATTACK TOUR Live at the Rainbow, November ’74\12 - Guitar Solo.wav
     Peak level 94.1 %
     Extraction speed 3.7 X
     Track quality 100.0 %
     Test CRC AC1BDC9A
     Copy CRC AC1BDC9A
     Accurately ripped (confidence 1)  [6A0BEC2C]  (AR v1)
     Copy OK
Track 13
     Filename E:\Nafta Releases\Queen - Live at the Rainbow 74 (2CD 2014)[FLAC] - Naftamusic\CD 2 SHEER HEART ATTACK TOUR Live at the Rainbow, November ’74\13 - Son And Daughter (Reprise).wav
     Peak level 94.5 %
     Extraction speed 3.3 X
     Track quality 100.0 %
     Test CRC BC06D4B2
     Copy CRC BC06D4B2
     Accurately ripped (confidence 1)  [15462485]  (AR v1)
     Copy OK
Track 14
     Filename E:\Nafta Releases\Queen - Live at the Rainbow 74 (2CD 2014)[FLAC] - Naftamusic\CD 2 SHEER HEART ATTACK TOUR Live at the Rainbow, November ’74\14 - Keep Yourself Alive.wav
     Peak level 94.8 %
     Extraction speed 2.2 X
     Track quality 99.9 %
     Test CRC B5E39725
     Copy CRC B5E39725
     Accurately ripped (confidence 1)  [FFAA685C]  (AR v1)
     Copy OK
Track 15
     Filename E:\Nafta Releases\Queen - Live at the Rainbow 74 (2CD 2014)[FLAC] - Naftamusic\CD 2 SHEER HEART ATTACK TOUR Live at the Rainbow, November ’74\15 - Drum Solo.wav
     Pre-gap length  0:00:00.01
     Peak level 94.5 %
     Extraction speed 2.6 X
     Track quality 100.0 %
     Test CRC 6F10B909
     Copy CRC 6F10B909
     Accurately ripped (confidence 1)  [CB6F74BB]  (AR v1)
     Copy OK
Track 16
     Filename E:\Nafta Releases\Queen - Live at the Rainbow 74 (2CD 2014)[FLAC] - Naftamusic\CD 2 SHEER HEART ATTACK TOUR Live at the Rainbow, November ’74\16 - Keep Yourself Alive (Reprise).wav
     Peak level 94.3 %
     Extraction speed 3.1 X
     Track quality 100.0 %
     Test CRC 3CD066A4
     Copy CRC 3CD066A4
     Accurately ripped (confidence 1)  [9AFBCEC7]  (AR v1)
     Copy OK
Track 17
     Filename E:\Nafta Releases\Queen - Live at the Rainbow 74 (2CD 2014)[FLAC] - Naftamusic\CD 2 SHEER HEART ATTACK TOUR Live at the Rainbow, November ’74\17 - Seven Seas Of Rhye.wav
     Peak level 95.4 %
     Extraction speed 3.9 X
     Track quality 100.0 %
     Test CRC 3FA92A2F
     Copy CRC 3FA92A2F
     Accurately ripped (confidence 1)  [CF4325E7]  (AR v1)
     Copy OK
Track 18
     Filename E:\Nafta Releases\Queen - Live at the Rainbow 74 (2CD 2014)[FLAC] - Naftamusic\CD 2 SHEER HEART ATTACK TOUR Live at the Rainbow, November ’74\18 - Stone Cold Crazy.wav
     Peak level 94.5 %
     Extraction speed 3.7 X
     Track quality 100.0 %
     Test CRC B7FB646F
     Copy CRC B7FB646F
     Accurately ripped (confidence 1)  [40BF3977]  (AR v1)
     Copy OK
Track 19
     Filename E:\Nafta Releases\Queen - Live at the Rainbow 74 (2CD 2014)[FLAC] - Naftamusic\CD 2 SHEER HEART ATTACK TOUR Live at the Rainbow, November ’74\19 - Liar.wav
     Peak level 94.9 %
     Extraction speed 3.8 X
     Track quality 99.9 %
     Test CRC F77F9745
     Copy CRC F77F9745
     Accurately ripped (confidence 1)  [CB15B8F9]  (AR v1)
     Copy OK
Track 20
     Filename E:\Nafta Releases\Queen - Live at the Rainbow 74 (2CD 2014)[FLAC] - Naftamusic\CD 2 SHEER HEART ATTACK TOUR Live at the Rainbow, November ’74\20 - In The Lap Of The Gods...Revisited.wav
     Peak level 94.4 %
     Extraction speed 4.3 X
     Track quality 100.0 %
     Test CRC 07A1F63A
     Copy CRC 07A1F63A
     Accurately ripped (confidence 1)  [3F61ED5B]  (AR v1)
     Copy OK
Track 21
     Filename E:\Nafta Releases\Queen - Live at the Rainbow 74 (2CD 2014)[FLAC] - Naftamusic\CD 2 SHEER HEART ATTACK TOUR Live at the Rainbow, November ’74\21 - Big Spender.wav
     Peak level 94.4 %
     Extraction speed 2.0 X
     Track quality 99.8 %
     Test CRC 63745600
     Copy CRC 63745600
     Accurately ripped (confidence 1)  [3244976D]  (AR v1)
     Copy OK
Track 22
     Filename E:\Nafta Releases\Queen - Live at the Rainbow 74 (2CD 2014)[FLAC] - Naftamusic\CD 2 SHEER HEART ATTACK TOUR Live at the Rainbow, November ’74\22 - Modern Times Rock'n'Roll.wav
     Peak level 95.1 %
     Extraction speed 4.3 X
     Track quality 100.0 %
     Test CRC 9683EF80
     Copy CRC 9683EF80
     Accurately ripped (confidence 1)  [20B13074]  (AR v1)
     Copy OK
Track 23
     Filename E:\Nafta Releases\Queen - Live at the Rainbow 74 (2CD 2014)[FLAC] - Naftamusic\CD 2 SHEER HEART ATTACK TOUR Live at the Rainbow, November ’74\23 - Jailhouse Rock.wav
     Peak level 94.8 %
     Extraction speed 4.5 X
     Track quality 100.0 %
     Test CRC 602D786C
     Copy CRC 602D786C
     Cannot be verified as accurate (confidence 1)  [4939B6F0], AccurateRip returned [F3336F45]  (AR v2)
     Copy OK
Track 24
     Filename E:\Nafta Releases\Queen - Live at the Rainbow 74 (2CD 2014)[FLAC] - Naftamusic\CD 2 SHEER HEART ATTACK TOUR Live at the Rainbow, November ’74\24 - God Save The Queen.wav
     Peak level 94.0 %
     Extraction speed 3.5 X
     Track quality 100.0 %
     Test CRC 7E4934BE
     Copy CRC 7E4934BE
     Cannot be verified as accurate (confidence 1)  [8A769BF1], AccurateRip returned [25F6E766]  (AR v2)
     Copy OK
22 track(s) accurately ripped
2 track(s) could not be verified as accurate
Some tracks could not be verified as accurate
No errors occurred
End of status report

содержание индексной карты *cue

REM GENRE Rock
REM DATE 2014
REM DISCID 5712AC18
REM COMMENT "ExactAudioCopy v1.0b3"
PERFORMER "Queen"
TITLE "Live at the Rainbow '74"
FILE "01 - Procession.wav" WAVE
  TRACK 01 AUDIO
    TITLE "Procession"
    PERFORMER "Queen"
    INDEX 01 00:00:00
FILE "02 - Now I'm Here.wav" WAVE
  TRACK 02 AUDIO
    TITLE "Now I'm Here"
    PERFORMER "Queen"
    INDEX 01 00:00:00
FILE "03 - Ogre Battle.wav" WAVE
  TRACK 03 AUDIO
    TITLE "Ogre Battle"
    PERFORMER "Queen"
    INDEX 01 00:00:00
FILE "04 - Father To Son.wav" WAVE
  TRACK 04 AUDIO
    TITLE "Father To Son"
    PERFORMER "Queen"
    INDEX 01 00:00:00
FILE "05 - White Queen.wav" WAVE
  TRACK 05 AUDIO
    TITLE "White Queen"
    PERFORMER "Queen"
    INDEX 01 00:00:00
FILE "06 - Flick Of The Wrist.wav" WAVE
  TRACK 06 AUDIO
    TITLE "Flick Of The Wrist"
    PERFORMER "Queen"
    INDEX 01 00:00:00
FILE "07 - In The Lap Of The Gods.wav" WAVE
  TRACK 07 AUDIO
    TITLE "In The Lap Of The Gods"
    PERFORMER "Queen"
    INDEX 01 00:00:00
FILE "08 - Killer Queen.wav" WAVE
  TRACK 08 AUDIO
    TITLE "Killer Queen"
    PERFORMER "Queen"
    INDEX 01 00:00:00
FILE "09 - The March Of The Black Queen.wav" WAVE
  TRACK 09 AUDIO
    TITLE "The March Of The Black Queen"
    PERFORMER "Queen"
    INDEX 01 00:00:00
FILE "10 - Bring Back That Leroy Brown.wav" WAVE
  TRACK 10 AUDIO
    TITLE "Bring Back That Leroy Brown"
    PERFORMER "Queen"
    INDEX 01 00:00:00
FILE "11 - Son And Daughter.wav" WAVE
  TRACK 11 AUDIO
    TITLE "Son And Daughter"
    PERFORMER "Queen"
    INDEX 01 00:00:00
FILE "12 - Guitar Solo.wav" WAVE
  TRACK 12 AUDIO
    TITLE "Guitar Solo"
    PERFORMER "Queen"
    INDEX 01 00:00:00
FILE "13 - Son And Daughter (Reprise).wav" WAVE
  TRACK 13 AUDIO
    TITLE "Son And Daughter (Reprise)"
    PERFORMER "Queen"
    INDEX 01 00:00:00
FILE "14 - Keep Yourself Alive.wav" WAVE
  TRACK 14 AUDIO
    TITLE "Keep Yourself Alive"
    PERFORMER "Queen"
    INDEX 01 00:00:00
  TRACK 15 AUDIO
    TITLE "Drum Solo"
    PERFORMER "Queen"
    INDEX 00 02:22:05
FILE "15 - Drum Solo.wav" WAVE
    INDEX 01 00:00:00
FILE "16 - Keep Yourself Alive (Reprise).wav" WAVE
  TRACK 16 AUDIO
    TITLE "Keep Yourself Alive (Reprise)"
    PERFORMER "Queen"
    INDEX 01 00:00:00
FILE "17 - Seven Seas Of Rhye.wav" WAVE
  TRACK 17 AUDIO
    TITLE "Seven Seas Of Rhye"
    PERFORMER "Queen"
    INDEX 01 00:00:00
FILE "18 - Stone Cold Crazy.wav" WAVE
  TRACK 18 AUDIO
    TITLE "Stone Cold Crazy"
    PERFORMER "Queen"
    INDEX 01 00:00:00
FILE "19 - Liar.wav" WAVE
  TRACK 19 AUDIO
    TITLE "Liar"
    PERFORMER "Queen"
    INDEX 01 00:00:00
FILE "20 - In The Lap Of The Gods...Revisited.wav" WAVE
  TRACK 20 AUDIO
    TITLE "In The Lap Of The Gods...Revisited"
    PERFORMER "Queen"
    INDEX 01 00:00:00
FILE "21 - Big Spender.wav" WAVE
  TRACK 21 AUDIO
    TITLE "Big Spender"
    PERFORMER "Queen"
    INDEX 01 00:00:00
FILE "22 - Modern Times Rock'n'Roll.wav" WAVE
  TRACK 22 AUDIO
    TITLE "Modern Times Rock'n'Roll"
    PERFORMER "Queen"
    INDEX 01 00:00:00
FILE "23 - Jailhouse Rock.wav" WAVE
  TRACK 23 AUDIO
    TITLE "Jailhouse Rock"
    PERFORMER "Queen"
    INDEX 01 00:00:00
FILE "24 - God Save The Queen.wav" WAVE
  TRACK 24 AUDIO
    TITLE "God Save The Queen"
    PERFORMER "Queen"
    INDEX 01 00:00:00
-Не забываем говорить
[Профиль] [ЛС]
Кто просматривает тему:

Форум Тема Автор Размер
Rock (Rock)Queen - The Works - 1984 (2011) [Ape, image +.cue, lossless] sergej644 251 MB
Показать сообщения:    

Текущее время: Сегодня 06:28

Часовой пояс: GMT



Вы не можете начинать темы
Вы не можете отвечать на сообщения
Вы не можете редактировать свои сообщения
Вы не можете удалять свои сообщения
Вы не можете голосовать в опросах
Вы не можете прикреплять файлы к сообщениям
Вы не можете скачивать файлы