(Rock) Queen - A Night At The Odeon - Hammersmith - 1975 | 2015 [FLAC, tracks+.cue, lossless]

 
Автор Сообщение

sergej644 ®

Пол:

Стаж: 4 года 11 месяцев

Сообщений: 6041

Откуда: Soviet Union



Награды: Нет

Торрент-статистика

Создавать темы 05-Янв-2016 12:17

[Цитировать]

-Queen / A Night At The Odeon - Hammersmith-- Год | Год издания: 1975 | 2015
Страна: UK
Жанр: Rock
Продолжительность: 01:13:21-Лейбл издания: Hollywood Records
Тип альбома: Live
Страна-выпуска диска: USA
Номер по каталогу: D002236102
Формат: FLAC
Битрейт аудио: lossless
Тип рипа: tracks+.cue
Наличие сканов в содержимом раздачи: да
-

Трэклист

01.Now I'm Here (04:43)
02.Ogre Battle (05:20)
03.White Queen (As It Began) (05:31)
04.Bohemian Rhapsody (02:29)
05.Killer Queen (02:09)
06.The March Of The Black Queen (01:31)
07.Bohemian Rhapsody (01:03)
08.Bring Back That Leroy Brown (01:33)
09.Brighton Rock (02:24)
10.Guitar Solo (06:38)
11.Son And Daughter (01:45)
12.Keep Yourself Alive (04:33)
13.Liar (08:46)
14.In The Lap Of The Gods...Revisited (05:24)
15.Big Spender (01:24)
16.Jailhouse Rock Medley (09:21)
17.Seven Seas Of Rhye (03:11)
18.See What A Fool I've Been (04:22)
19.God Save The Queen (01:23)
-

Лог создания рипа

X Lossless Decoder version 20141129a (148.2)
XLD extraction logfile from 2015-11-10 23:42:51 -0500
Queen / A Night At The Odeon
Used drive : MATSHITA DVD-R   UJ-8A8 (revision HB14)
Media type : Pressed CD
Ripper mode             : XLD Secure Ripper
Disable audio cache     : OK for the drive with a cache less than 1375KiB
Make use of C2 pointers : NO
Read offset correction  : 102
Max retry count         : 20
Gap status              : Analyzed, Appended (except HTOA)
TOC of the extracted CD
     Track |   Start  |  Length  | Start sector | End sector
    ---------------------------------------------------------
        1  | 00:00:00 | 04:42:61 |         0    |    21210
        2  | 04:42:61 | 05:19:27 |     21211    |    45162
        3  | 10:02:13 | 05:30:63 |     45163    |    69975
        4  | 15:33:01 | 02:28:23 |     69976    |    81098
        5  | 18:01:24 | 02:08:11 |     81099    |    90709
        6  | 20:09:35 | 01:30:01 |     90710    |    97460
        7  | 21:39:36 | 01:02:03 |     97461    |   102113
        8  | 22:41:39 | 01:32:16 |    102114    |   109029
        9  | 24:13:55 | 02:23:60 |    109030    |   119814
       10  | 26:37:40 | 06:37:28 |    119815    |   149617
       11  | 33:14:68 | 01:44:16 |    149618    |   157433
       12  | 34:59:09 | 04:32:51 |    157434    |   177884
       13  | 39:31:60 | 08:45:16 |    177885    |   217275
       14  | 48:17:01 | 05:23:58 |    217276    |   241558
       15  | 53:40:59 | 01:23:51 |    241559    |   247834
       16  | 55:04:35 | 09:20:54 |    247835    |   289888
       17  | 64:25:14 | 03:10:72 |    289889    |   304210
       18  | 67:36:11 | 04:21:71 |    304211    |   323856
       19  | 71:58:07 | 01:22:40 |    323857    |   330046
AccurateRip Summary
    Disc not found in AccurateRip DB.
All Tracks
    Album gain               : -6.80 dB
    Peak                     : 0.978485
    Statistics
        Read error                           : 0
        Jitter error (maybe fixed)           : 0
        Retry sector count                   : 0
        Damaged sector count                 : 0
Track 01
    Filename : /Users/andrewderosa/Desktop/Queen /Queen - A Night At The Odeon (2015) [FLAC]/01 Now I'm Here (Live At The Hammersmith Odeon, London / 1975).flac
    Pre-gap length : 00:02:00
    Track gain               : -7.17 dB
    Peak                     : 0.978485
    CRC32 hash (test run)    : C399E798
    CRC32 hash               : C399E798
    CRC32 hash (skip zero)   : D597CB98
    AccurateRip v1 signature : BEB94E21
    AccurateRip v2 signature : DAB058D1
        ->Track not present in AccurateRip database.
    Statistics
        Read error                           : 0
        Jitter error (maybe fixed)           : 0
        Retry sector count                   : 0
        Damaged sector count                 : 0
Track 02
    Filename : /Users/andrewderosa/Desktop/Queen /Queen - A Night At The Odeon (2015) [FLAC]/02 Ogre Battle (Live At The Hammersmith Odeon, London / 1975).flac
    Track gain               : -7.02 dB
    Peak                     : 0.977509
    CRC32 hash (test run)    : 836E5C67
    CRC32 hash               : 836E5C67
    CRC32 hash (skip zero)   : 82BA7B6A
    AccurateRip v1 signature : C28CB489
    AccurateRip v2 signature : BDBD95F9
        ->Track not present in AccurateRip database.
    Statistics
        Read error                           : 0
        Jitter error (maybe fixed)           : 0
        Retry sector count                   : 0
        Damaged sector count                 : 0
Track 03
    Filename : /Users/andrewderosa/Desktop/Queen /Queen - A Night At The Odeon (2015) [FLAC]/03 White Queen (As It Began) (Live At The Hammersmith Odeon, London / 1975).flac
    Track gain               : -7.60 dB
    Peak                     : 0.977081
    CRC32 hash (test run)    : F3C990B7
    CRC32 hash               : F3C990B7
    CRC32 hash (skip zero)   : C1A88960
    AccurateRip v1 signature : FB6EB80B
    AccurateRip v2 signature : E74EAD9E
        ->Track not present in AccurateRip database.
    Statistics
        Read error                           : 0
        Jitter error (maybe fixed)           : 0
        Retry sector count                   : 0
        Damaged sector count                 : 0
Track 04
    Filename : /Users/andrewderosa/Desktop/Queen /Queen - A Night At The Odeon (2015) [FLAC]/04 Bohemian Rhapsody (Live At The Hammersmith Odeon, London / 1975).flac
    Track gain               : -6.62 dB
    Peak                     : 0.977051
    CRC32 hash (test run)    : 759A325B
    CRC32 hash               : 759A325B
    CRC32 hash (skip zero)   : 82F75346
    AccurateRip v1 signature : 22D2886D
    AccurateRip v2 signature : 467A339E
        ->Track not present in AccurateRip database.
    Statistics
        Read error                           : 0
        Jitter error (maybe fixed)           : 0
        Retry sector count                   : 0
        Damaged sector count                 : 0
Track 05
    Filename : /Users/andrewderosa/Desktop/Queen /Queen - A Night At The Odeon (2015) [FLAC]/05 Killer Queen (Live At The Hammersmith Odeon, London / 1975).flac
    Track gain               : -5.94 dB
    Peak                     : 0.974121
    CRC32 hash (test run)    : CC655A01
    CRC32 hash               : CC655A01
    CRC32 hash (skip zero)   : 3DAF60A0
    AccurateRip v1 signature : 50C112CD
    AccurateRip v2 signature : 54401FEA
        ->Track not present in AccurateRip database.
    Statistics
        Read error                           : 0
        Jitter error (maybe fixed)           : 0
        Retry sector count                   : 0
        Damaged sector count                 : 0
Track 06
    Filename : /Users/andrewderosa/Desktop/Queen /Queen - A Night At The Odeon (2015) [FLAC]/06 The March Of The Black Queen (Live At The Hammersmith Odeon, London / 1975).flac
    Track gain               : -7.50 dB
    Peak                     : 0.976257
    CRC32 hash (test run)    : 54D8FF78
    CRC32 hash               : 54D8FF78
    CRC32 hash (skip zero)   : 70E82D54
    AccurateRip v1 signature : 610FD916
    AccurateRip v2 signature : B5AEC5EE
        ->Track not present in AccurateRip database.
    Statistics
        Read error                           : 0
        Jitter error (maybe fixed)           : 0
        Retry sector count                   : 0
        Damaged sector count                 : 0
Track 07
    Filename : /Users/andrewderosa/Desktop/Queen /Queen - A Night At The Odeon (2015) [FLAC]/07 Bohemian Rhapsody (Reprise / Live At The Hammersmith Odeon, London / 1975).flac
    Track gain               : -5.72 dB
    Peak                     : 0.977203
    CRC32 hash (test run)    : 1581010D
    CRC32 hash               : 1581010D
    CRC32 hash (skip zero)   : 54041A46
    AccurateRip v1 signature : 4D72C6B5
    AccurateRip v2 signature : 001B22CB
        ->Track not present in AccurateRip database.
    Statistics
        Read error                           : 0
        Jitter error (maybe fixed)           : 0
        Retry sector count                   : 0
        Damaged sector count                 : 0
Track 08
    Filename : /Users/andrewderosa/Desktop/Queen /Queen - A Night At The Odeon (2015) [FLAC]/08 Bring Back That Leroy Brown (Live At The Hammersmith Odeon, London / 1975).flac
    Track gain               : -4.93 dB
    Peak                     : 0.939362
    CRC32 hash (test run)    : 73967CDE
    CRC32 hash               : 73967CDE
    CRC32 hash (skip zero)   : BEDE244A
    AccurateRip v1 signature : 1E25A199
    AccurateRip v2 signature : 160797A3
        ->Track not present in AccurateRip database.
    Statistics
        Read error                           : 0
        Jitter error (maybe fixed)           : 0
        Retry sector count                   : 0
        Damaged sector count                 : 0
Track 09
    Filename : /Users/andrewderosa/Desktop/Queen /Queen - A Night At The Odeon (2015) [FLAC]/09 Brighton Rock (Live At The Hammersmith Odeon, London / 1975).flac
    Track gain               : -7.02 dB
    Peak                     : 0.977936
    CRC32 hash (test run)    : 8635EFA6
    CRC32 hash               : 8635EFA6
    CRC32 hash (skip zero)   : 06A3DCCA
    AccurateRip v1 signature : 0874472A
    AccurateRip v2 signature : 4E44BF5F
        ->Track not present in AccurateRip database.
    Statistics
        Read error                           : 0
        Jitter error (maybe fixed)           : 0
        Retry sector count                   : 0
        Damaged sector count                 : 0
Track 10
    Filename : /Users/andrewderosa/Desktop/Queen /Queen - A Night At The Odeon (2015) [FLAC]/10 Guitar Solo (Live At The Hammersmith Odeon, London / 1975).flac
    Track gain               : -5.42 dB
    Peak                     : 0.950500
    CRC32 hash (test run)    : AC04E774
    CRC32 hash               : AC04E774
    CRC32 hash (skip zero)   : 0111887E
    AccurateRip v1 signature : A9917D29
    AccurateRip v2 signature : D8C440E0
        ->Track not present in AccurateRip database.
    Statistics
        Read error                           : 0
        Jitter error (maybe fixed)           : 0
        Retry sector count                   : 0
        Damaged sector count                 : 0
Track 11
    Filename : /Users/andrewderosa/Desktop/Queen /Queen - A Night At The Odeon (2015) [FLAC]/11 Son And Daughter (Live At The Hammersmith Odeon, London / 1975).flac
    Track gain               : -6.29 dB
    Peak                     : 0.973663
    CRC32 hash (test run)    : 3A576589
    CRC32 hash               : 3A576589
    CRC32 hash (skip zero)   : 221375F9
    AccurateRip v1 signature : FFBF25CF
    AccurateRip v2 signature : 115234FF
        ->Track not present in AccurateRip database.
    Statistics
        Read error                           : 0
        Jitter error (maybe fixed)           : 0
        Retry sector count                   : 0
        Damaged sector count                 : 0
Track 12
    Filename : /Users/andrewderosa/Desktop/Queen /Queen - A Night At The Odeon (2015) [FLAC]/12 Keep Yourself Alive (Live At The Hammersmith Odeon, London / 1975).flac
    Track gain               : -6.65 dB
    Peak                     : 0.977173
    CRC32 hash (test run)    : A6FBDA5C
    CRC32 hash               : A6FBDA5C
    CRC32 hash (skip zero)   : 2FC4FC7F
    AccurateRip v1 signature : CA029389
    AccurateRip v2 signature : EEE536C2
        ->Track not present in AccurateRip database.
    Statistics
        Read error                           : 0
        Jitter error (maybe fixed)           : 0
        Retry sector count                   : 0
        Damaged sector count                 : 0
Track 13
    Filename : /Users/andrewderosa/Desktop/Queen /Queen - A Night At The Odeon (2015) [FLAC]/13 Liar (Live At The Hammersmith Odeon, London / 1975).flac
    Track gain               : -6.23 dB
    Peak                     : 0.975220
    CRC32 hash (test run)    : AC278EE0
    CRC32 hash               : AC278EE0
    CRC32 hash (skip zero)   : 1447F116
    AccurateRip v1 signature : 1EF8A900
    AccurateRip v2 signature : 72451FD9
        ->Track not present in AccurateRip database.
    Statistics
        Read error                           : 0
        Jitter error (maybe fixed)           : 0
        Retry sector count                   : 0
        Damaged sector count                 : 0
Track 14
    Filename : /Users/andrewderosa/Desktop/Queen /Queen - A Night At The Odeon (2015) [FLAC]/14 In The Lap Of The Gods...Revisited (Live At The Hammersmith Odeon, London / 1975).flac
    Track gain               : -6.82 dB
    Peak                     : 0.974884
    CRC32 hash (test run)    : 47568273
    CRC32 hash               : 47568273
    CRC32 hash (skip zero)   : 9110F81A
    AccurateRip v1 signature : AB103422
    AccurateRip v2 signature : 45991E3B
        ->Track not present in AccurateRip database.
    Statistics
        Read error                           : 0
        Jitter error (maybe fixed)           : 0
        Retry sector count                   : 0
        Damaged sector count                 : 0
Track 15
    Filename : /Users/andrewderosa/Desktop/Queen /Queen - A Night At The Odeon (2015) [FLAC]/15 Big Spender (Live At The Hammersmith Odeon, London / 1975).flac
    Track gain               : -6.66 dB
    Peak                     : 0.965881
    CRC32 hash (test run)    : D670CBA8
    CRC32 hash               : D670CBA8
    CRC32 hash (skip zero)   : A57DA55B
    AccurateRip v1 signature : 0A657E56
    AccurateRip v2 signature : 4E8D76D6
        ->Track not present in AccurateRip database.
    Statistics
        Read error                           : 0
        Jitter error (maybe fixed)           : 0
        Retry sector count                   : 0
        Damaged sector count                 : 0
Track 16
    Filename : /Users/andrewderosa/Desktop/Queen /Queen - A Night At The Odeon (2015) [FLAC]/16 Jailhouse Rock Medley (Live At The Hammersmith Odeon, London / 1975).flac
    Track gain               : -6.21 dB
    Peak                     : 0.976837
    CRC32 hash (test run)    : 84D278A5
    CRC32 hash               : 84D278A5
    CRC32 hash (skip zero)   : 9A199FD2
    AccurateRip v1 signature : 6BC4C955
    AccurateRip v2 signature : 6EDF209F
        ->Track not present in AccurateRip database.
    Statistics
        Read error                           : 0
        Jitter error (maybe fixed)           : 0
        Retry sector count                   : 0
        Damaged sector count                 : 0
Track 17
    Filename : /Users/andrewderosa/Desktop/Queen /Queen - A Night At The Odeon (2015) [FLAC]/17 Seven Seas Of Rhye (Live At The Hammersmith Odeon, London / 1975).flac
    Track gain               : -7.46 dB
    Peak                     : 0.977661
    CRC32 hash (test run)    : 4B6BBED7
    CRC32 hash               : 4B6BBED7
    CRC32 hash (skip zero)   : 6D213D2D
    AccurateRip v1 signature : FB01EB77
    AccurateRip v2 signature : 9E0918BE
        ->Track not present in AccurateRip database.
    Statistics
        Read error                           : 0
        Jitter error (maybe fixed)           : 0
        Retry sector count                   : 0
        Damaged sector count                 : 0
Track 18
    Filename : /Users/andrewderosa/Desktop/Queen /Queen - A Night At The Odeon (2015) [FLAC]/18 See What A Fool I've Been (Live At The Hammersmith Odeon, London / 1975).flac
    Track gain               : -7.42 dB
    Peak                     : 0.969116
    CRC32 hash (test run)    : F2E54378
    CRC32 hash               : F2E54378
    CRC32 hash (skip zero)   : 6CDDE15B
    AccurateRip v1 signature : 2122C686
    AccurateRip v2 signature : 6BA999A7
        ->Track not present in AccurateRip database.
    Statistics
        Read error                           : 0
        Jitter error (maybe fixed)           : 0
        Retry sector count                   : 0
        Damaged sector count                 : 0
Track 19
    Filename : /Users/andrewderosa/Desktop/Queen /Queen - A Night At The Odeon (2015) [FLAC]/19 God Save The Queen (Live At The Hammersmith Odeon, London / 1975).flac
    Track gain               : -5.18 dB
    Peak                     : 0.831665
    CRC32 hash (test run)    : 0C045BC3
    CRC32 hash               : 0C045BC3
    CRC32 hash (skip zero)   : 14BF55DD
    AccurateRip v1 signature : 993DCC11
    AccurateRip v2 signature : FAA060A2
        ->Track not present in AccurateRip database.
    Statistics
        Read error                           : 0
        Jitter error (maybe fixed)           : 0
        Retry sector count                   : 0
        Damaged sector count                 : 0
No errors occurred
End of status report

Индексная карта (non-compilant .cue)

REM GENRE Rock
REM DATE 2015
REM DISCID 05113013
REM COMMENT "Live At The Hammersmith Odeon, London 1975"
PERFORMER "Queen"
TITLE "A Night At The Odeon"
FILE "01 Now I'm Here.wav" WAVE
  TRACK 01 AUDIO
    PERFORMER "Queen"
    TITLE "Now I'm Here"
    INDEX 01 00:00:00
FILE "02 Ogre Battle.wav" WAVE
  TRACK 02 AUDIO
    PERFORMER "Queen"
    TITLE "Ogre Battle"
    INDEX 01 00:00:00
FILE "03 White Queen (As It Began).wav" WAVE
  TRACK 03 AUDIO
    PERFORMER "Queen"
    TITLE "White Queen (As It Began)"
    INDEX 01 00:00:00
FILE "04 Bohemian Rhapsody.wav" WAVE
  TRACK 04 AUDIO
    PERFORMER "Queen"
    TITLE "Bohemian Rhapsody"
    INDEX 01 00:00:00
FILE "05 Killer Queen.wav" WAVE
  TRACK 05 AUDIO
    PERFORMER "Queen"
    TITLE "Killer Queen"
    INDEX 01 00:00:00
FILE "06 The March Of The Black Queen.wav" WAVE
  TRACK 06 AUDIO
    PERFORMER "Queen"
    TITLE "The March Of The Black Queen"
    INDEX 01 00:00:00
FILE "07 Bohemian Rhapsody.wav" WAVE
  TRACK 07 AUDIO
    PERFORMER "Queen"
    TITLE "Bohemian Rhapsody"
    INDEX 01 00:00:00
FILE "08 Bring Back That Leroy Brown.wav" WAVE
  TRACK 08 AUDIO
    PERFORMER "Queen"
    TITLE "Bring Back That Leroy Brown"
    INDEX 01 00:00:00
FILE "09 Brighton Rock.wav" WAVE
  TRACK 09 AUDIO
    PERFORMER "Queen"
    TITLE "Brighton Rock"
    INDEX 01 00:00:00
FILE "10 Guitar Solo.wav" WAVE
  TRACK 10 AUDIO
    PERFORMER "Queen"
    TITLE "Guitar Solo"
    INDEX 01 00:00:00
FILE "11 Son And Daughter.wav" WAVE
  TRACK 11 AUDIO
    PERFORMER "Queen"
    TITLE "Son And Daughter"
    INDEX 01 00:00:00
FILE "12 Keep Yourself Alive.wav" WAVE
  TRACK 12 AUDIO
    PERFORMER "Queen"
    TITLE "Keep Yourself Alive"
    INDEX 01 00:00:00
FILE "13 Liar.wav" WAVE
  TRACK 13 AUDIO
    PERFORMER "Queen"
    TITLE "Liar"
    INDEX 01 00:00:00
FILE "14 In The Lap Of The Gods...Revisited.wav" WAVE
  TRACK 14 AUDIO
    PERFORMER "Queen"
    TITLE "In The Lap Of The Gods...Revisited"
    INDEX 01 00:00:00
FILE "15 Big Spender.wav" WAVE
  TRACK 15 AUDIO
    PERFORMER "Queen"
    TITLE "Big Spender"
    INDEX 01 00:00:00
FILE "16 Jailhouse Rock Medley.wav" WAVE
  TRACK 16 AUDIO
    PERFORMER "Queen"
    TITLE "Jailhouse Rock Medley"
    INDEX 01 00:00:00
FILE "17 Seven Seas Of Rhye.wav" WAVE
  TRACK 17 AUDIO
    PERFORMER "Queen"
    TITLE "Seven Seas Of Rhye"
    INDEX 01 00:00:00
FILE "18 See What A Fool I've Been.wav" WAVE
  TRACK 18 AUDIO
    PERFORMER "Queen"
    TITLE "See What A Fool I've Been"
    INDEX 01 00:00:00
FILE "19 God Save The Queen.wav" WAVE
  TRACK 19 AUDIO
    PERFORMER "Queen"
    TITLE "God Save The Queen"
    INDEX 01 00:00:00
--Не забываем говорить
[Профиль] [ЛС]
Показать сообщения:    

Текущее время: Сегодня 12:45

Часовой пояс: GMT



Вы не можете начинать темы
Вы не можете отвечать на сообщения
Вы не можете редактировать свои сообщения
Вы не можете удалять свои сообщения
Вы не можете голосовать в опросах
Вы не можете прикреплять файлы к сообщениям
Вы не можете скачивать файлы