Queen: A Night At The Odeon - Hammersmith 1975 (2015) Blu-Ray 1080i

 
Автор Сообщение

BOSS ®

Пол:

Стаж: 2 года 2 месяца

Сообщений: 3751

Откуда: ODESSA



Награды: 20 (Подробнее)

Top Seeder 2 (Количество: 1) За внесенный вклад в развитие сайта (Количество: 1) Top Seeder 3 (Количество: 1)
Торрент-статистика

Создавать темы 28-Ноя-2015 08:40

[Цитировать]

Queen: A Night At The Odeon - Hammersmith (1975) Blu-Ray 1080i

Оригинальное название: Queen: A Night At The Odeon - Hammersmith
Год проведения концерта: 24 декабря 1975
Год выхода диска: 2015
Жанр: Rock
Состав группы: Freddie Mercury, Brian May, Roger Taylor, John Deacon
О фильме:
Перед Вами Рождественский концерт группы Queen, ставший кульминацией британского тура 1975 года.
Queen впервые во время этого тура исполняет знаменитую "Bohemian Rhapsody". Шоу транслировалось одновременно в прямом эфире как на радио , так и на телевидении (BBC).


Страна: Великобритания (Eagle Rock Entertainment)
Продолжительность: 01:02:45 + 00:36:05 (bonus)
Перевод: Оригинал (не требуется)
Качество: Blu-Ray 1080i
Видео: MPEG-4 AVC, 1920x1080 (16:9), ~ 29997 Kbps, 29.970 fps, High Profile 4.1
Звук: Аудио 1: English PCM 2.0, 96 kHz, 4608 kbps, 24-bit
Аудио 2: English DTS-HD MA 5.1, 96 kHz, 6649 kbps, 24-bit (DTS Core: 5.1, 48 kHz, 1509 kbps, 24-bit)
Субтитры: English, French, German, Italian, Spanish, Portuguese
Видеомиксы, концерты, hardstyle: Заходим, смотрим и качаем
"Музыка - то немногое, что объединяет людей и делает наш мир лучше" (V.ATAKy)

скриншоты


трек-лист


01. Now I'm Here
02. Ogre Battle
03. White Queen (As It Began)
04. Bohemian Rhapsody
05. Killer Queen
06. The March Of The Black Queen
07. Bohemian Rhapsody (Reprise)
08. Bring Back That Leroy Brown
09. Brighton Rock
10. Guitar Solo
11. Son And Daughter
12. Keep Yourself Alive
13. Liar
14. In The Lap Of The Gods... Revisited
15. Big Spender
16. Jailhouse Rock Medley
17. God Save The Queen
BONUS:
1. Lead-Up To The Concert
2. Soundcheck & The Show
3. Following The Concert
4. Now I'm Here
5. Killer Queen
6. In The Lap Of The Gods

BDInfo

Disc Title:
********************
PLAYLIST: 00000.MPLS
********************
Total   Video
Title                                                           Codec   Length  Movie Size      Disc Size       Bitrate Bitrate Main Audio Track                          Secondary Audio Track
-----                                                           ------  ------- --------------  --------------  ------- ------- ------------------                        ---------------------
00000.MPLS                                                      AVC     1:02:45 0               31 358 672 377  0,00    0,00    LPCM 2.0 4608Kbps (96kHz/24-bit)          DTS-HD Master 5.1 (96kHz/24-bit)
DISC INFO:
Disc Title:     A_NIGHT_AT_THE_ODEON
Disc Size:      31 358 672 377 bytes
Protection:     AACS
BD-Java:        No
BDInfo:         0.5.8
PLAYLIST REPORT:
Name:                   00000.MPLS
Length:                 1:02:45.461 (h:m:s.ms)
Size:                   0 bytes
Total Bitrate:          0,00 Mbps
VIDEO:
Codec                   Bitrate             Deion
-----                   -------             -----------
MPEG-4 AVC Video        0 kbps              1080i / 29,970 fps / 16:9 / High Profile 4.1
AUDIO:
Codec                           Language        Bitrate         Deion
-----                           --------        -------         -----------
LPCM Audio                      English         4608 kbps       2.0 / 96 kHz / 4608 kbps / 24-bit
DTS-HD Master Audio             English         0 kbps          5.1 / 96 kHz / 24-bit (DTS Core: 5.1 / 48 kHz / 1509 kbps / 24-bit)
FILES:
Name            Time In         Length          Size            Total Bitrate
----            -------         ------          ----            -------------
00000.M2TS      0:00:00.000     1:02:45.461     0               0
CHAPTERS:
Number          Time In         Length          Avg Video Rate  Max 1-Sec Rate  Max 1-Sec Time  Max 5-Sec Rate  Max 5-Sec Time  Max 10Sec Rate  Max 10Sec Time  Avg Frame Size  Max Frame Size  Max Frame Time
------          -------         ------          --------------  --------------  --------------  --------------  --------------  --------------  --------------  --------------  --------------  --------------
1               0:00:00.000     0:04:38.077     0 kbps          0 kbps          00:00:00.000    0 kbps          00:00:00.000    0 kbps          00:00:00.000    0 bytes         0 bytes         00:00:00.000
2               0:04:38.077     0:05:22.822     0 kbps          0 kbps          00:00:00.000    0 kbps          00:00:00.000    0 kbps          00:00:00.000    0 bytes         0 bytes         00:00:00.000
3               0:10:00.900     0:05:31.664     0 kbps          0 kbps          00:00:00.000    0 kbps          00:00:00.000    0 kbps          00:00:00.000    0 bytes         0 bytes         00:00:00.000
4               0:15:32.564     0:02:28.681     0 kbps          0 kbps          00:00:00.000    0 kbps          00:00:00.000    0 kbps          00:00:00.000    0 bytes         0 bytes         00:00:00.000
5               0:18:01.246     0:02:08.294     0 kbps          0 kbps          00:00:00.000    0 kbps          00:00:00.000    0 kbps          00:00:00.000    0 bytes         0 bytes         00:00:00.000
6               0:20:09.541     0:01:29.889     0 kbps          0 kbps          00:00:00.000    0 kbps          00:00:00.000    0 kbps          00:00:00.000    0 bytes         0 bytes         00:00:00.000
7               0:21:39.431     0:01:02.262     0 kbps          0 kbps          00:00:00.000    0 kbps          00:00:00.000    0 kbps          00:00:00.000    0 bytes         0 bytes         00:00:00.000
8               0:22:41.693     0:01:27.153     0 kbps          0 kbps          00:00:00.000    0 kbps          00:00:00.000    0 kbps          00:00:00.000    0 bytes         0 bytes         00:00:00.000
9               0:24:08.847     0:02:27.747     0 kbps          0 kbps          00:00:00.000    0 kbps          00:00:00.000    0 kbps          00:00:00.000    0 bytes         0 bytes         00:00:00.000
10              0:26:36.594     0:06:37.930     0 kbps          0 kbps          00:00:00.000    0 kbps          00:00:00.000    0 kbps          00:00:00.000    0 bytes         0 bytes         00:00:00.000
11              0:33:14.525     0:01:42.869     0 kbps          0 kbps          00:00:00.000    0 kbps          00:00:00.000    0 kbps          00:00:00.000    0 bytes         0 bytes         00:00:00.000
12              0:34:57.395     0:04:28.801     0 kbps          0 kbps          00:00:00.000    0 kbps          00:00:00.000    0 kbps          00:00:00.000    0 bytes         0 bytes         00:00:00.000
13              0:39:26.197     0:08:50.830     0 kbps          0 kbps          00:00:00.000    0 kbps          00:00:00.000    0 kbps          00:00:00.000    0 bytes         0 bytes         00:00:00.000
14              0:48:17.027     0:05:20.720     0 kbps          0 kbps          00:00:00.000    0 kbps          00:00:00.000    0 kbps          00:00:00.000    0 bytes         0 bytes         00:00:00.000
15              0:53:37.747     0:01:25.652     0 kbps          0 kbps          00:00:00.000    0 kbps          00:00:00.000    0 kbps          00:00:00.000    0 bytes         0 bytes         00:00:00.000
16              0:55:03.400     0:06:14.674     0 kbps          0 kbps          00:00:00.000    0 kbps          00:00:00.000    0 kbps          00:00:00.000    0 bytes         0 bytes         00:00:00.000
17              1:01:18.074     0:01:25.952     0 kbps          0 kbps          00:00:00.000    0 kbps          00:00:00.000    0 kbps          00:00:00.000    0 bytes         0 bytes         00:00:00.000
18              1:02:44.026     0:00:01.434     0 kbps          0 kbps          00:00:00.000    0 kbps          00:00:00.000    0 kbps          00:00:00.000    0 bytes         0 bytes         00:00:00.000
STREAM DIAGNOSTICS:
File            PID             Type            Codec           Language                Seconds                 Bitrate                 Bytes           Packets
----            ---             ----            -----           --------                --------------          --------------          -------------   -----
00000.M2TS      4113 (0x1011)   0x1B            AVC                                     1,001                   0                       0               0
00000.M2TS      4352 (0x1100)   0x80            LPCM            eng (English)           1,001                   0                       0               0
00000.M2TS      4353 (0x1101)   0x86            DTS-HD MA       eng (English)           1,001                   0                       0               0
QUICK SUMMARY:
Disc Title: A_NIGHT_AT_THE_ODEON
Disc Size: 31 358 672 377 bytes
Protection: AACS
BD-Java: No
Playlist: 00000.MPLS
Size: 0 bytes
Length: 1:02:45.461
Total Bitrate: 0,00 Mbps
Video: MPEG-4 AVC Video / 0 kbps / 1080i / 29,970 fps / 16:9 / High Profile 4.1
Audio: English / LPCM Audio / 2.0 / 96 kHz / 4608 kbps / 24-bit
Audio: English / DTS-HD Master Audio / 5.1 / 96 kHz / 24-bit (DTS Core: 5.1 / 48 kHz / 1509 kbps / 24-bit)
********************
PLAYLIST: 00005.MPLS
********************
Total   Video
Title                                                           Codec   Length  Movie Size      Disc Size       Bitrate Bitrate Main Audio Track                          Secondary Audio Track
-----                                                           ------  ------- --------------  --------------  ------- ------- ------------------                        ---------------------
00005.MPLS                                                      AVC     0:22:57 0               31 358 672 377  0,00    0,00    LPCM 2.0 2304Kbps (48kHz/24-bit)
DISC INFO:
Disc Title:     A_NIGHT_AT_THE_ODEON
Disc Size:      31 358 672 377 bytes
Protection:     AACS
BD-Java:        No
BDInfo:         0.5.8
PLAYLIST REPORT:
Name:                   00005.MPLS
Length:                 0:22:57.909 (h:m:s.ms)
Size:                   0 bytes
Total Bitrate:          0,00 Mbps
VIDEO:
Codec                   Bitrate             Deion
-----                   -------             -----------
MPEG-4 AVC Video        0 kbps              1080i / 29,970 fps / 16:9 / High Profile 4.1
AUDIO:
Codec                           Language        Bitrate         Deion
-----                           --------        -------         -----------
LPCM Audio                      English         2304 kbps       2.0 / 48 kHz / 2304 kbps / 24-bit
SUBTITLES:
Codec                           Language        Bitrate         Deion
-----                           --------        -------         -----------
Presentation Graphics           English         0,000 kbps
Presentation Graphics           French          0,000 kbps
Presentation Graphics           German          0,000 kbps
Presentation Graphics           Italian         0,000 kbps
Presentation Graphics           Spanish         0,000 kbps
Presentation Graphics           Portuguese      0,000 kbps
FILES:
Name            Time In         Length          Size            Total Bitrate
----            -------         ------          ----            -------------
00011.M2TS      0:00:00.000     0:22:57.909     0               0
CHAPTERS:
Number          Time In         Length          Avg Video Rate  Max 1-Sec Rate  Max 1-Sec Time  Max 5-Sec Rate  Max 5-Sec Time  Max 10Sec Rate  Max 10Sec Time  Avg Frame Size  Max Frame Size  Max Frame Time
------          -------         ------          --------------  --------------  --------------  --------------  --------------  --------------  --------------  --------------  --------------  --------------
1               0:00:00.000     0:06:27.854     0 kbps          0 kbps          00:00:00.000    0 kbps          00:00:00.000    0 kbps          00:00:00.000    0 bytes         0 bytes         00:00:00.000
2               0:06:27.854     0:13:22.701     0 kbps          0 kbps          00:00:00.000    0 kbps          00:00:00.000    0 kbps          00:00:00.000    0 bytes         0 bytes         00:00:00.000
3               0:19:50.556     0:03:05.818     0 kbps          0 kbps          00:00:00.000    0 kbps          00:00:00.000    0 kbps          00:00:00.000    0 bytes         0 bytes         00:00:00.000
4               0:22:56.375     0:00:01.534     0 kbps          0 kbps          00:00:00.000    0 kbps          00:00:00.000    0 kbps          00:00:00.000    0 bytes         0 bytes         00:00:00.000
STREAM DIAGNOSTICS:
File            PID             Type            Codec           Language                Seconds                 Bitrate                 Bytes           Packets
----            ---             ----            -----           --------                --------------          --------------          -------------   -----
00011.M2TS      4113 (0x1011)   0x1B            AVC                                     0                       0                       0               0
00011.M2TS      4352 (0x1100)   0x80            LPCM            eng (English)           0                       0                       0               0
00011.M2TS      4608 (0x1200)   0x90            PGS             eng (English)           0                       0                       0               0
00011.M2TS      4609 (0x1201)   0x90            PGS             fra (French)            0                       0                       0               0
00011.M2TS      4610 (0x1202)   0x90            PGS             deu (German)            0                       0                       0               0
00011.M2TS      4611 (0x1203)   0x90            PGS             ita (Italian)           0                       0                       0               0
00011.M2TS      4612 (0x1204)   0x90            PGS             spa (Spanish)           0                       0                       0               0
00011.M2TS      4613 (0x1205)   0x90            PGS             por (Portuguese)        0                       0                       0               0
QUICK SUMMARY:
Disc Title: A_NIGHT_AT_THE_ODEON
Disc Size: 31 358 672 377 bytes
Protection: AACS
BD-Java: No
Playlist: 00005.MPLS
Size: 0 bytes
Length: 0:22:57.909
Total Bitrate: 0,00 Mbps
Video: MPEG-4 AVC Video / 0 kbps / 1080i / 29,970 fps / 16:9 / High Profile 4.1
Audio: English / LPCM Audio / 2.0 / 48 kHz / 2304 kbps / 24-bit
Subtitle: English / 0,000 kbps
Subtitle: French / 0,000 kbps
Subtitle: German / 0,000 kbps
Subtitle: Italian / 0,000 kbps
Subtitle: Spanish / 0,000 kbps
Subtitle: Portuguese / 0,000 kbps
********************
PLAYLIST: 00006.MPLS
********************
Total   Video
Title                                                           Codec   Length  Movie Size      Disc Size       Bitrate Bitrate Main Audio Track                          Secondary Audio Track
-----                                                           ------  ------- --------------  --------------  ------- ------- ------------------                        ---------------------
00006.MPLS                                                      AVC     0:11:20 0               31 358 672 377  0,00    0,00    LPCM 2.0 2304Kbps (48kHz/24-bit)
DISC INFO:
Disc Title:     A_NIGHT_AT_THE_ODEON
Disc Size:      31 358 672 377 bytes
Protection:     AACS
BD-Java:        No
BDInfo:         0.5.8
PLAYLIST REPORT:
Name:                   00006.MPLS
Length:                 0:11:20.312 (h:m:s.ms)
Size:                   0 bytes
Total Bitrate:          0,00 Mbps
VIDEO:
Codec                   Bitrate             Deion
-----                   -------             -----------
MPEG-4 AVC Video        0 kbps              1080i / 29,970 fps / 16:9 / High Profile 4.1
AUDIO:
Codec                           Language        Bitrate         Deion
-----                           --------        -------         -----------
LPCM Audio                      English         2304 kbps       2.0 / 48 kHz / 2304 kbps / 24-bit
FILES:
Name            Time In         Length          Size            Total Bitrate
----            -------         ------          ----            -------------
00012.M2TS      0:00:00.000     0:11:15.307     0               0
00021.M2TS      0:11:15.307     0:00:05.004     0               0
CHAPTERS:
Number          Time In         Length          Avg Video Rate  Max 1-Sec Rate  Max 1-Sec Time  Max 5-Sec Rate  Max 5-Sec Time  Max 10Sec Rate  Max 10Sec Time  Avg Frame Size  Max Frame Size  Max Frame Time
------          -------         ------          --------------  --------------  --------------  --------------  --------------  --------------  --------------  --------------  --------------  --------------
1               0:00:00.000     0:04:45.451     0 kbps          0 kbps          00:00:00.000    0 kbps          00:00:00.000    0 kbps          00:00:00.000    0 bytes         0 bytes         00:00:00.000
2               0:04:45.451     0:02:06.826     0 kbps          0 kbps          00:00:00.000    0 kbps          00:00:00.000    0 kbps          00:00:00.000    0 bytes         0 bytes         00:00:00.000
3               0:06:52.278     0:04:22.395     0 kbps          0 kbps          00:00:00.000    0 kbps          00:00:00.000    0 kbps          00:00:00.000    0 bytes         0 bytes         00:00:00.000
4               0:11:14.674     0:00:05.638     0 kbps          0 kbps          00:00:00.000    0 kbps          00:00:00.000    0 kbps          00:00:00.000    0 bytes         0 bytes         00:00:00.000
STREAM DIAGNOSTICS:
File            PID             Type            Codec           Language                Seconds                 Bitrate                 Bytes           Packets
----            ---             ----            -----           --------                --------------          --------------          -------------   -----
00012.M2TS      4113 (0x1011)   0x1B            AVC                                     0                       0                       0               0
00012.M2TS      4352 (0x1100)   0x80            LPCM            eng (English)           0                       0                       0               0
00021.M2TS      4113 (0x1011)   0x1B            AVC                                     0                       0                       0               0
QUICK SUMMARY:
Disc Title: A_NIGHT_AT_THE_ODEON
Disc Size: 31 358 672 377 bytes
Protection: AACS
BD-Java: No
Playlist: 00006.MPLS
Size: 0 bytes
Length: 0:11:20.312
Total Bitrate: 0,00 Mbps
Video: MPEG-4 AVC Video / 0 kbps / 1080i / 29,970 fps / 16:9 / High Profile 4.1
Audio: English / LPCM Audio / 2.0 / 48 kHz / 2304 kbps / 24-bit
********************
PLAYLIST: 00003.MPLS
********************
Total   Video
Title                                                           Codec   Length  Movie Size      Disc Size       Bitrate Bitrate Main Audio Track                          Secondary Audio Track
-----                                                           ------  ------- --------------  --------------  ------- ------- ------------------                        ---------------------
00003.MPLS                                                      AVC     0:00:45 0               31 358 672 377  0,00    0,00
DISC INFO:
Disc Title:     A_NIGHT_AT_THE_ODEON
Disc Size:      31 358 672 377 bytes
Protection:     AACS
BD-Java:        No
BDInfo:         0.5.8
PLAYLIST REPORT:
Name:                   00003.MPLS
Length:                 0:00:45.078 (h:m:s.ms)
Size:                   0 bytes
Total Bitrate:          0,00 Mbps
VIDEO:
Codec                   Bitrate             Deion
-----                   -------             -----------
MPEG-4 AVC Video        0 kbps              1080i / 29,970 fps / 16:9 / High Profile 4.1
FILES:
Name            Time In         Length          Size            Total Bitrate
----            -------         ------          ----            -------------
00018.M2TS      0:00:00.000     0:00:06.005     0               0
00019.M2TS      0:00:06.005     0:00:08.008     0               0
00020.M2TS      0:00:14.014     0:00:11.010     0               0
00007.M2TS      0:00:25.024     0:00:20.053     0               0
CHAPTERS:
Number          Time In         Length          Avg Video Rate  Max 1-Sec Rate  Max 1-Sec Time  Max 5-Sec Rate  Max 5-Sec Time  Max 10Sec Rate  Max 10Sec Time  Avg Frame Size  Max Frame Size  Max Frame Time
------          -------         ------          --------------  --------------  --------------  --------------  --------------  --------------  --------------  --------------  --------------  --------------
1               0:00:00.000     0:00:45.078     0 kbps          0 kbps          00:00:00.000    0 kbps          00:00:00.000    0 kbps          00:00:00.000    0 bytes         0 bytes         00:00:00.000
STREAM DIAGNOSTICS:
File            PID             Type            Codec           Language                Seconds                 Bitrate                 Bytes           Packets
----            ---             ----            -----           --------                --------------          --------------          -------------   -----
00018.M2TS      4113 (0x1011)   0x1B            AVC                                     0                       0                       0               0
00019.M2TS      4113 (0x1011)   0x1B            AVC                                     0                       0                       0               0
00020.M2TS      4113 (0x1011)   0x1B            AVC                                     0                       0                       0               0
00007.M2TS      4113 (0x1011)   0x1B            AVC                                     0                       0                       0               0
QUICK SUMMARY:
Disc Title: A_NIGHT_AT_THE_ODEON
Disc Size: 31 358 672 377 bytes
Protection: AACS
BD-Java: No
Playlist: 00003.MPLS
Size: 0 bytes
Length: 0:00:45.078
Total Bitrate: 0,00 Mbps
Video: MPEG-4 AVC Video / 0 kbps / 1080i / 29,970 fps / 16:9 / High Profile 4.1
[Профиль] [ЛС]
Кто просматривает тему:

Показать сообщения:    

Текущее время: Сегодня 06:22

Часовой пояс: GMT



Вы не можете начинать темы
Вы не можете отвечать на сообщения
Вы не можете редактировать свои сообщения
Вы не можете удалять свои сообщения
Вы не можете голосовать в опросах
Вы не можете прикреплять файлы к сообщениям
Вы не можете скачивать файлы