P.S. Я люблю тебя / P.S. I Love You (Ричард ЛаГравенес / Richard LaGravenese) [2007, США, драма, мелодрама, экранизация, BDRip] AVO (Немахов)

 
Автор Сообщение

TorrentFilm ®

Пол:

Стаж: 2 года

Сообщений: 7741



Награды: Нет

Торрент-статистика

Создавать темы 24-Мар-2016 00:08

[Цитировать]

P.S. Я люблю тебя / P.S. I Love You / USA Transfer
Страна: США
Студия: Alcon Entertainment, Grosvenor Park, Wendy Finerman
Жанр: Драма, мелодрама, экранизация
Год выпуска: 2007
Продолжительность: 02:06:02
Перевод: Авторский (одноголосый закадровый) Юрий Немахов
Cубтитры: нет
Оригинальная аудиодорожка: нет
Режиссер: Ричард ЛаГравенес / Richard LaGravenese
В ролях: Хилари Суэнк, Джерард Батлер, Кэти Бэйтс, Джина Гершон, Лиза Кудроу, Джеффри Дин Морган, Джеймс Марстерс, Гарри Конник мл., Нелли МакКэй, Кристофер Уэйлен, Дин Уинтерс, Энн Кент, Брайан МакГрат, Шери Рене Скотт, Сьюзэн Блэкуэлл, Майкл Кантримэн, Роджер Рэтберн, Рита Гарднер, Гэйтон Скотт, Брайан Мунн, Шеперд Франкель, Ричард Уоллес Смит, Майк Дойл, Дон Спаркс, Карис Вуйчеч, Александра МакГиннесс, Ангус Ог МакЭнэлли, Райан Эверетт Кэнвилд, Тимо Шнеллингер, Дэнни Келверт, Фрэд Инкли, Ричард Уотсон, Маркус Коллинз, Джеймс Кронин, Мэттью Мартин, Марк МакНатт, Броктон Пирс, Кевин Уитт, Бетт Дэвис
Описание: Супруги Джерри (Батлер) и Холли (Суэнк) безумно любят друг друга и верят, что проживут долгую и счастливую жизнь. Но судьба распоряжается иначе – и Холли остается молодой вдовой. Жизнь теряет для нее всякий смысл, молодая женщина впадает в глубокую депрессию и находится на грани помешательства. И в этот тяжелейший момент ей на помощь приходит... Джерри. Прекрасно зная свою жену и предвидя, в каком состоянии она будет находиться после его смерти, Джерри оставляет ей 10 удивительных посланий, которые должны помочь Холли оправиться от горя и вернуться к жизни, ведь его любовь - сильнее смерти...
Дополнительная информация:
Автор релиза - ylnian
Выкуп голоса Юрия Немахова - ylnian
За сборку дороги с Немаховым спасибо rammzez
Источник для рипа - Blu Ray (USA) - [url=viewtopic.php?t=5190650]http://torrentfilm.net/forum/viewtopic.php?t=5190650[/url]


Сэмпл: https://yadi.sk/i/XlCXBCWSqLTfx
Тип релиза: BDRip
Контейнер: AVI
Видео: XviD, 704x400, 1881 kbps, 23.976 fps, 0.279 bit/pixel
Аудио: Русский AC3 5.1, 48 kHz, 448 kbps

MediaInfo

General
Complete name : B:\P.S.I.Love.You.2007.BDRip.Nemahov-ylnian.avi
Format : AVI
Format/Info : Audio Video Interleave
Format profile : OpenDML
File size : 2.06 GiB
Duration : 2h 6mn
Overall bit rate : 2 342 Kbps
Writing application : VirtualDubMod 1.5.10.2 (build 2540/release)
Writing library : VirtualDubMod build 2540/release
Video
ID : 0
Format : MPEG-4 Visual
Format profile : Advanced Simple@L5
Format settings, BVOP : 1
Format settings, QPel : No
Format settings, GMC : No warppoints
Format settings, Matrix : Default (MPEG)
Codec ID : XVID
Codec ID/Hint : XviD
Duration : 2h 6mn
Bit rate : 1 881 Kbps
Width : 704 pixels
Height : 400 pixels
Display aspect ratio : 16:9
Frame rate : 23.976 (24000/1001) fps
Color space : YUV
Chroma subsampling : 4:2:0
Bit depth : 8 bits
Scan type : Progressive
Compression mode : Lossy
Bits/(Pixel*Frame) : 0.279
Stream size : 1.66 GiB (80%)
Writing library : XviD 67
Audio
ID : 1
Format : AC-3
Format/Info : Audio Coding 3
Mode extension : CM (complete main)
Format settings, Endianness : Big
Codec ID : 2000
Duration : 2h 6mn
Bit rate mode : Constant
Bit rate : 448 Kbps
Channel(s) : 6 channels
Channel positions : Front: L C R, Side: L R, LFE
Sampling rate : 48.0 KHz
Frame rate : 31.250 fps (1536 spf)
Compression mode : Lossy
Stream size : 404 MiB (19%)
Alignment : Split accross interleaves
Interleave, duration : 42 ms (1.00 video frame)
Interleave, preload duratio : 500 ms

Интересно

- Слоган фильма - «Иногда остается сказать лишь одно»
- Экранизация одноимённого дебютного романа 24-летней Сесилии Ахерн «P.S. Я люблю тебя», написанного в 2005 г., номинанта международной литературной премии «Impac» 2006 года.
- Сюжет фильма и книги повторяет южнокорейский фильм «Письмо» (англ.) 1997 года.
- Съёмки проходили с ноября 2006 года в Нью-Йорке и Ирландии.
- В комнате Холли можно заметить DVD диск «Победить темноту» (Dark Victory 1939).
- Фильм снят по роману Сесилии Ахерн. Это ее первая книга, ставшая международным бестселлером.
- Хилари Суонк появилась в проекте в мае 2005 года. Джерард Батлер - в августе того же года.
- Фильм посвящён памяти известной американской женщины-фотографа Вейдланд Смит Райс (Windland Smith Rise) (1970—2005 гг.). Её сестра Молли — один из продюсеров фильма.
- Во время съемок одной из любовных сцен Батлер случайно ударил Суэнк подтяжками, после чего актрисе пришлось накладывать на голову четыре шва, а работу останавливать на неделю.
- Роли дублировали: Татьяна Шитова (Holly), Василий Дахненко (Gerry), Ольга Зубкова (Sharon), Илья Бледный (John), Пётр Иващенко (William), Юрий Деркач (Tom)

Рецензия

OnXaM (kinopoisk.ru) (25 февраля 2008):
При выходе из кинотеатра, женщины жадно смотрят на мужчин и думают, ну и где мне то такого найти? Красавца, певца, умника, массовика-затейника, романтика, мужчину. Где ты? При выходе из кинотеатра, мужчина глупо смотрит по сторонам и думает, мда, как-то туповато я на его фоне смотрюсь, на гитаре научиться играть что ль…
Фильм не оставляет равнодушным ни один из полов, он полезен, как встряска для мужской фантазии и думалки, как завлечь самку, и полезен для женских слезных желез и возможность хоть как то определиться, что же она все-таки хочет.
Живи сегодняшним днем, вдыхай воздух как последний раз, бей и целуй как в последний раз, не теряй минуту, когда рядом тот, кто тебе дорог, лучше жалеть о том, что сделал, чем о том чего не сделал, вот что тянется на протяжении фильма. Холли сидит на месте и ждет чего-то, а герой Батлера готов к новым подвигам хоть этой ночью, как он и говорит в начале фильм. Жизнь — это сейчас — это секунда, а не следующая за ней.
Роли и прописаны и сыграны отлично, я даже в Ирландию захотел, Батлер меня убедил. Свонк люблю, ей как будто доверяешь в этом фильме она истинная женщина. Конник младший замечательный актер открытие для меня в этом фильме. Он «такой милый», как бы сказала девушка, а когда о тебе представительница противоположного пола говорит ты милый то пиши, пропало, друг — не больше — бейся в лепешку. Подружки как подружки, меня как мужчину отвлекали формы одной из них, ну а Кудроу… Фиби это.
Фильм пропитан американщиной не знаю в чем это выражается, но это даже у меня и не вызвало плохих эмоций.
В общем, сидя и жуя очередную пачку прессованной кукурузной муки с приправами я останавливался и задумывался о том что происходит в жизни героини.
Красиво, романтично, учусь.
P. S. Чтоб я без женщин делал…

Скриншот c названием фильма

Скриншоты

[Профиль] [ЛС]
Кто просматривает тему:

Показать сообщения:    

Текущее время: Сегодня 22:23

Часовой пояс: GMT



Вы не можете начинать темы
Вы не можете отвечать на сообщения
Вы не можете редактировать свои сообщения
Вы не можете удалять свои сообщения
Вы не можете голосовать в опросах
Вы не можете прикреплять файлы к сообщениям
Вы не можете скачивать файлы