(Heavy Metal) Primal Fear - Rulebreaker - (Japanese Edition) - 2016 [FLAC, image +.cue, lossless]

 
Автор Сообщение

sergej644 ®

Пол:

Стаж: 4 года 11 месяцев

Сообщений: 6040

Откуда: Soviet Union



Награды: Нет

Торрент-статистика

Создавать темы 03-Фев-2016 16:25

[Цитировать]

-Primal Fear - Rulebreaker--
Год издания: 2016
Страна: Germany
Жанр: Heavy Metal
Продолжительность: 01:04:06-Лейбл издания: Avalon
Страна-выпуска диска: Japan
Номер по каталогу: MIZP-60041-Формат: FLAC
Битрейт аудио: Lossless
Тип рипа: image +.cue
Наличие сканов в содержимом раздачи: да
-

Трэклист


01. Angels Of Mercy (03:36)
02. The End Is Near (04:27)
03. Bullets & Tears (03:06)
04. Rulebreaker (04:39)
05. In Metal We Trust (03:35)
06. We Walk Without Fear (10:46)
07. At War With The World (04:07)
08. The Devil In Me (04:45)
09. Constant Heart (04:51)
10. The Sky Is Burning (04:46)
11. Raving Mad (03:18)
12. Final Call (Bonus Track) (04:05)
13. Don't Say You've Never Been Warned (Bonus Track) (04:24)
14. The Sky Is Burning (Exclusive Mix) (03:49)
-

Лог создания рипа

Exact Audio Copy V1.0 beta 2 from 29. April 2011
EAC extraction logfile from 24. January 2016, 7:45
Primal Fear / Rulebreaker
Used drive  : HL-DT-STDVDRAM GH24LS70   Adapter: 3  ID: 0
Read mode               : Secure
Utilize accurate stream : Yes
Defeat audio cache      : Yes
Make use of C2 pointers : No
Read offset correction                      : 667
Overread into Lead-In and Lead-Out          : No
Fill up missing offset samples with silence : Yes
Delete leading and trailing silent blocks   : No
Null samples used in CRC calculations       : Yes
Used interface                              : Native Win32 interface for Win NT & 2000
Used output format              : User Defined Encoder
Selected bitrate                : 896 kBit/s
Quality                         : High
Add ID3 tag                     : No
Command line compressor         : C:\Program Files\Exact Audio Copy\FLAC\FLAC.EXE
Additional command line options :  -V -8 -T "Date=%year%" -T "Genre=%genre%" %source%
TOC of the extracted CD
     Track |   Start  |  Length  | Start sector | End sector
    ---------------------------------------------------------
        1  |  0:00.00 |  3:35.47 |         0    |    16171
        2  |  3:35.47 |  4:26.73 |     16172    |    36194
        3  |  8:02.45 |  3:05.29 |     36195    |    50098
        4  | 11:07.74 |  4:38.10 |     50099    |    70958
        5  | 15:46.09 |  3:34.47 |     70959    |    87055
        6  | 19:20.56 | 10:45.09 |     87056    |   135439
        7  | 30:05.65 |  4:06.56 |    135440    |   153945
        8  | 34:12.46 |  4:44.03 |    153946    |   175248
        9  | 38:56.49 |  4:50.45 |    175249    |   197043
       10  | 43:47.19 |  4:45.16 |    197044    |   218434
       11  | 48:32.35 |  3:17.03 |    218435    |   233212
       12  | 51:49.38 |  4:04.46 |    233213    |   251558
       13  | 55:54.09 |  4:23.03 |    251559    |   271286
       14  | 60:17.12 |  3:48.03 |    271287    |   288389
Range status and errors
Selected range
     Filename E:\Primal Fear - Rulebreaker (2016)\Primal Fear.wav
     Peak level 98.8 %
     Extraction speed 1.3 X
     Range quality 99.9 %
     Test CRC 7EC05673
     Copy CRC 7EC05673
     Copy OK
No errors occurred
AccurateRip summary
Track  1  not present in database
Track  2  not present in database
Track  3  not present in database
Track  4  not present in database
Track  5  not present in database
Track  6  not present in database
Track  7  not present in database
Track  8  not present in database
Track  9  not present in database
Track 10  not present in database
Track 11  not present in database
Track 12  not present in database
Track 13  not present in database
Track 14  not present in database
None of the tracks are present in the AccurateRip database
End of status report

Индексная карта (non-compilant .cue)

REM GENRE "Heavy Metal"
REM DATE 2016
REM DISCID C80F050E
REM COMMENT "ExactAudioCopy v1.0b2"
PERFORMER "Primal Fear"
TITLE "Rulebreaker"
FILE "Primal Fear.flac" WAVE
  TRACK 01 AUDIO
    TITLE "Angels Of Mercy"
    PERFORMER "Primal Fear"
    INDEX 01 00:00:00
  TRACK 02 AUDIO
    TITLE "The End Is Near"
    PERFORMER "Primal Fear"
    INDEX 01 03:35:47
  TRACK 03 AUDIO
    TITLE "Bullets & Tears"
    PERFORMER "Primal Fear"
    INDEX 01 08:02:45
  TRACK 04 AUDIO
    TITLE "Rulebreaker"
    PERFORMER "Primal Fear"
    INDEX 01 11:07:74
  TRACK 05 AUDIO
    TITLE "In Metal We Trust"
    PERFORMER "Primal Fear"
    INDEX 01 15:46:09
  TRACK 06 AUDIO
    TITLE "We Walk Without Fear"
    PERFORMER "Primal Fear"
    INDEX 01 19:20:56
  TRACK 07 AUDIO
    TITLE "At War With The World"
    PERFORMER "Primal Fear"
    INDEX 01 30:05:65
  TRACK 08 AUDIO
    TITLE "The Devil In Me"
    PERFORMER "Primal Fear"
    INDEX 01 34:12:46
  TRACK 09 AUDIO
    TITLE "Constant Heart"
    PERFORMER "Primal Fear"
    INDEX 01 38:56:49
  TRACK 10 AUDIO
    TITLE "The Sky Is Burning"
    PERFORMER "Primal Fear"
    INDEX 01 43:47:19
  TRACK 11 AUDIO
    TITLE "Raving Mad"
    PERFORMER "Primal Fear"
    INDEX 01 48:32:35
  TRACK 12 AUDIO
    TITLE "Final Call (Bonus Track)"
    PERFORMER "Primal Fear"
    INDEX 00 51:46:38
    INDEX 01 51:49:38
  TRACK 13 AUDIO
    TITLE "Don't Say You've Never Been Warned (Bonus Track)"
    PERFORMER "Primal Fear"
    INDEX 01 55:54:09
  TRACK 14 AUDIO
    TITLE "The Sky Is Burning (Exclusive Mix) "
    PERFORMER "Primal Fear"
    INDEX 01 60:17:12
--
[Профиль] [ЛС]
Показать сообщения:    

Текущее время: Сегодня 02:43

Часовой пояс: GMT



Вы не можете начинать темы
Вы не можете отвечать на сообщения
Вы не можете редактировать свои сообщения
Вы не можете удалять свои сообщения
Вы не можете голосовать в опросах
Вы не можете прикреплять файлы к сообщениям
Вы не можете скачивать файлы