(Pop / Dance) VA - Mega Hits (2CD) 2013 - 2012, FLAC (image+.cue), lossless

 
Автор Сообщение

sergej644 ®

Пол:

Стаж: 4 года 11 месяцев

Сообщений: 6046

Откуда: Soviet Union



Награды: Нет

Торрент-статистика

Создавать темы 31-Май-2015 12:48

[Цитировать]

Mega Hits (2CD) 2013
Жанр: Pop / Dance
Носитель: CD
Страна-производитель диска (релиза): România
Год издания: 2012
Издатель (лейбл): ROTON
Номер по каталогу: 5061-2
Страна исполнителя (группы): România
Аудиокодек: FLAC (*.flac)
Тип рипа: image+.cue
Битрейт аудио: lossless
Продолжительность: CD1 - 01:08:30 / CD2 - 01:07:09
Источник (релизер): CD (my rip)
Наличие сканов в содержимом раздачи: 600dpi PNG

CD1

Треклист


1. Connect-r - Love Is The Way (Radio Edit)
2. Akcent - Chimie Intre Noi (Guitar Radio Edit)
3. Antonia - Jameia
4. Crush + Alexandra Ungureanu - Nu Am Aripi
5. Andrei Leonte - Te Iubesc Cat 2 (Radio Edit)
6. Raluka - All For You (Radio Edit)
7. Ddy Nunes feat. Beverlei Brown - Make You Mine (Radio Edit)
8. Arando Marquez feat. Phelipe - Need Ya (Radio Edit)
9. Ellie White - Ziua Mea
10. Dj Rynno & Sylvia - Chiar Daca Ai Plecat (Radio Edit)
11. Marius feat. Red Head - Love Is Blind
12. Keo & Skizzo Skillz - O Singura Noapte
13. Blaxy Girls feat. Carlprit - Miss You (Ciprian Robu Dubstep Remix)
14. Phelipe feat. Dj Bonne - Mikaela
15. Rivera feat. Amna & Obie-P - Hey Ho (Radio Edit)
16. Morris - Bring Me Love
17. Emil Lassaria feat. Caitlyn - Tu Amor
18. Tony Ray feat. Gianna - Chica Loca
19. Picco - La Maquina (Original Radio Edit)
20. Scooter - 4am (Radio Version)

Лог создания рипа

Exact Audio Copy V1.0 beta 3 from 29. August 2011
EAC extraction logfile from 30. May 2015, 19:46
Various Artists / Mega Hits 2013 CD1
Used drive : ASUS DRW-2014L1T Adapter: 7 ID: 0
Read mode : Secure
Utilize accurate stream : Yes
Defeat audio cache : Yes
Make use of C2 pointers : No
Read offset correction : 6
Overread into Lead-In and Lead-Out : No
Fill up missing offset samples with silence : Yes
Delete leading and trailing silent blocks : No
Null samples used in CRC calculations : Yes
Used interface : Native Win32 interface for Win NT & 2000
Used output format : Internal WAV Routines
Sample format : 44.100 Hz; 16 Bit; Stereo
TOC of the extracted CD
Track | Start | Length | Start sector | End sector
---------------------------------------------------------
1 | 0:00.00 | 3:12.29 | 0 | 14428
2 | 3:12.29 | 3:26.64 | 14429 | 29942
3 | 6:39.18 | 3:48.35 | 29943 | 47077
4 | 10:27.53 | 3:41.26 | 47078 | 63678
5 | 14:09.04 | 3:37.25 | 63679 | 79978
6 | 17:46.29 | 3:51.00 | 79979 | 97303
7 | 21:37.29 | 3:04.35 | 97304 | 111138
8 | 24:41.64 | 3:32.18 | 111139 | 127056
9 | 28:14.07 | 3:07.61 | 127057 | 141142
10 | 31:21.68 | 3:27.24 | 141143 | 156691
11 | 34:49.17 | 3:33.66 | 156692 | 172732
12 | 38:23.08 | 3:44.18 | 172733 | 189550
13 | 42:07.26 | 3:05.37 | 189551 | 203462
14 | 45:12.63 | 3:28.72 | 203463 | 219134
15 | 48:41.60 | 3:02.53 | 219135 | 232837
16 | 51:44.38 | 3:48.18 | 232838 | 249955
17 | 55:32.56 | 3:26.01 | 249956 | 265406
18 | 58:58.57 | 3:21.60 | 265407 | 280541
19 | 62:20.42 | 2:52.29 | 280542 | 293470
20 | 65:12.71 | 3:17.05 | 293471 | 308250
Range status and errors
Selected range
Filename D:\OUTPUT FILES\Various Artists - Mega Hits 2013 CD1.wav
Peak level 100.0 %
Extraction speed 8.6 X
Range quality 100.0 %
Test CRC C270A9D8
Copy CRC C270A9D8
Copy OK
No errors occurred
AccurateRip summary
Track 1 not present in database
Track 2 not present in database
Track 3 not present in database
Track 4 not present in database
Track 5 not present in database
Track 6 not present in database
Track 7 not present in database
Track 8 not present in database
Track 9 not present in database
Track 10 not present in database
Track 11 not present in database
Track 12 not present in database
Track 13 not present in database
Track 14 not present in database
Track 15 not present in database
Track 16 not present in database
Track 17 not present in database
Track 18 not present in database
Track 19 not present in database
Track 20 not present in database
None of the tracks are present in the AccurateRip database
End of status report
---- CUETools DB Plugin V2.1.3
[CTDB TOCID: 0YvROV.BxDpsXc6mdlhoVypD1Is-] found, Submit result: already submitted
[b795d053] (1/1) Accurately ripped
==== Log checksum 3380A0C1AF7E60535A9B18F201FD357B2DADDFDBA421B5839C6518685FB1A3BB ====

Содержание индексной карты (.CUE)

REM GENRE Pop
REM DATE 2012
REM DISCID 1D100E14
REM COMMENT "ExactAudioCopy v1.0b3"
PERFORMER "Various Artists"
TITLE "Mega Hits 2013 CD1"
FILE "Various Artists - Mega Hits 2013 CD1.wav" WAVE
TRACK 01 AUDIO
TITLE "Love Is The Way (Radio Edit)"
PERFORMER "Connect-R"
FLAGS DCP
INDEX 01 00:00:00
TRACK 02 AUDIO
TITLE "Chimie Intre Noi (Guitar Radio Edit)"
PERFORMER "Akcent"
FLAGS DCP
INDEX 00 03:10:29
INDEX 01 03:12:29
TRACK 03 AUDIO
TITLE "Jameia"
PERFORMER "Antonia"
FLAGS DCP
INDEX 00 06:37:18
INDEX 01 06:39:18
TRACK 04 AUDIO
TITLE "Nu Am Aripi"
PERFORMER "Crush + Alexandra Ungureanu"
FLAGS DCP
INDEX 00 10:25:53
INDEX 01 10:27:53
TRACK 05 AUDIO
TITLE "Te Iubesc Cat 2 (Radio Edit)"
PERFORMER "Andrei Leonte"
FLAGS DCP
INDEX 00 14:07:04
INDEX 01 14:09:04
TRACK 06 AUDIO
TITLE "All For You (Radio Edit)"
PERFORMER "Raluka"
FLAGS DCP
INDEX 00 17:44:29
INDEX 01 17:46:29
TRACK 07 AUDIO
TITLE "Make You Mine (Radio Edit)"
PERFORMER "Ddy Nunes feat. Beverlei Brown"
FLAGS DCP
INDEX 00 21:35:29
INDEX 01 21:37:29
TRACK 08 AUDIO
TITLE "Need Ya (Radio Edit)"
PERFORMER "Arando Marquez feat. Phelipe"
FLAGS DCP
INDEX 00 24:39:64
INDEX 01 24:41:64
TRACK 09 AUDIO
TITLE "Ziua Mea"
PERFORMER "Ellie White"
FLAGS DCP
INDEX 00 28:12:07
INDEX 01 28:14:07
TRACK 10 AUDIO
TITLE "Chiar Daca Ai Plecat (Radio Edit)"
PERFORMER "DJ Rynno & Sylvia"
FLAGS DCP
INDEX 00 31:19:68
INDEX 01 31:21:68
TRACK 11 AUDIO
TITLE "Love Is Blind"
PERFORMER "Marius feat. Red Head"
FLAGS DCP
INDEX 00 34:47:17
INDEX 01 34:49:17
TRACK 12 AUDIO
TITLE "O Singura Noapte"
PERFORMER "Keo & Skizzo Skillz"
FLAGS DCP
INDEX 00 38:21:08
INDEX 01 38:23:08
TRACK 13 AUDIO
TITLE "Miss You (Ciprian Robu Dubstep Remix)"
PERFORMER "Blaxy Girls feat. Carlprit"
FLAGS DCP
INDEX 00 42:05:26
INDEX 01 42:07:26
TRACK 14 AUDIO
TITLE "Mikaela"
PERFORMER "Phelipe feat. DJ Bonne"
FLAGS DCP
INDEX 00 45:10:63
INDEX 01 45:12:63
TRACK 15 AUDIO
TITLE "Hey Ho (Radio Edit)"
PERFORMER "Rivera feat. Amna & Obie-P"
FLAGS DCP
INDEX 00 48:39:60
INDEX 01 48:41:60
TRACK 16 AUDIO
TITLE "Bring My Love"
PERFORMER "Morris"
FLAGS DCP
INDEX 00 51:42:38
INDEX 01 51:44:38
TRACK 17 AUDIO
TITLE "Tu Amor"
PERFORMER "Emil Lassaria feat. Caitlyn"
FLAGS DCP
INDEX 00 55:30:56
INDEX 01 55:32:56
TRACK 18 AUDIO
TITLE "Chica Loca"
PERFORMER "Tony Ray feat. Gianna"
FLAGS DCP
INDEX 00 58:56:57
INDEX 01 58:58:57
TRACK 19 AUDIO
TITLE "La Maquina (Original Radio Edit)"
PERFORMER "Picco"
FLAGS DCP
INDEX 00 62:18:42
INDEX 01 62:20:42
TRACK 20 AUDIO
TITLE "4am (Radio Version)"
PERFORMER "Scooter"
FLAGS DCP
INDEX 00 65:10:71
INDEX 01 65:12:71

CD2

Треклист


1. Inna feat. Play & Win - INNdiA (Ciprian Roby Dubstep Remix)
2. Michel Telo - Bara Bara
3. Skizzo Skillz feat. Karie - Biniditat (Radio Edit)
4. Gary Caos vs Rico Bernasconi feat. In-Grid - La Trompette (Bernasconi Radio Edit)
5. Fly Project - Back In My Life (Radio Edit)
6. Anda Adam - Amo
7. Gabry Ponte feat. Pitbull and Sophia Del Carmen - Beat On My Drum (Gabry Ponte Club Mix Radio Spanish)
8. Electric Lady Lab - You & Me (Radio Edit)
9. Beverlei Brown - Wishing On A Star
10. Bob Sinclair - Groupie
11. Andreea Miss Ventura - My Love (Bennie Becker Radio Edit)
12. Mike Diamondz - Ciocolata
13. Jessica D - Hero (Radio Edit)
14. Stroke69 - Jamaika
15. Borys & Amna - Esta Noche
16. Anthony - Masquerade
17. Deep Zone Project - Made For Loving You
18. Fawni - It’s All About You (Original Radio Edit)
19. Nom de Guerre - Run Run Run (Ciprian Robu Remix Edit)
20. Zero - Ploua Cu Bani

Лог создания рипа

Exact Audio Copy V1.0 beta 3 from 29. August 2011
EAC extraction logfile from 31. May 2015, 4:12
Various Artists / Mega Hits 2013 CD2
Used drive : ASUS DRW-2014L1T Adapter: 7 ID: 0
Read mode : Secure
Utilize accurate stream : Yes
Defeat audio cache : Yes
Make use of C2 pointers : No
Read offset correction : 6
Overread into Lead-In and Lead-Out : No
Fill up missing offset samples with silence : Yes
Delete leading and trailing silent blocks : No
Null samples used in CRC calculations : Yes
Used interface : Native Win32 interface for Win NT & 2000
Used output format : Internal WAV Routines
Sample format : 44.100 Hz; 16 Bit; Stereo
TOC of the extracted CD
Track | Start | Length | Start sector | End sector
---------------------------------------------------------
1 | 0:00.00 | 3:16.07 | 0 | 14706
2 | 3:16.07 | 2:46.24 | 14707 | 27180
3 | 6:02.31 | 3:09.65 | 27181 | 41420
4 | 9:12.21 | 3:02.09 | 41421 | 55079
5 | 12:14.30 | 3:18.58 | 55080 | 69987
6 | 15:33.13 | 3:27.40 | 69988 | 85552
7 | 19:00.53 | 3:04.41 | 85553 | 99393
8 | 22:05.19 | 3:53.68 | 99394 | 116936
9 | 25:59.12 | 3:11.60 | 116937 | 131321
10 | 29:10.72 | 3:07.19 | 131322 | 145365
11 | 32:18.16 | 3:30.28 | 145366 | 161143
12 | 35:48.44 | 3:20.68 | 161144 | 176211
13 | 39:09.37 | 3:29.67 | 176212 | 191953
14 | 42:39.29 | 3:43.73 | 191954 | 208751
15 | 46:23.27 | 3:05.44 | 208752 | 222670
16 | 49:28.71 | 3:15.36 | 222671 | 237331
17 | 52:44.32 | 3:54.49 | 237332 | 254930
18 | 56:39.06 | 3:39.70 | 254931 | 271425
19 | 60:19.01 | 3:47.36 | 271426 | 288486
20 | 64:06.37 | 3:02.50 | 288487 | 302186
Range status and errors
Selected range
Filename D:\OUTPUT FILES\Various Artists - Mega Hits 2013 CD2.wav
Peak level 100.0 %
Extraction speed 7.2 X
Range quality 99.9 %
Test CRC E903BDBA
Copy CRC E903BDBA
Copy OK
No errors occurred
AccurateRip summary
Track 1 not present in database
Track 2 not present in database
Track 3 not present in database
Track 4 not present in database
Track 5 not present in database
Track 6 not present in database
Track 7 not present in database
Track 8 not present in database
Track 9 not present in database
Track 10 not present in database
Track 11 not present in database
Track 12 not present in database
Track 13 not present in database
Track 14 not present in database
Track 15 not present in database
Track 16 not present in database
Track 17 not present in database
Track 18 not present in database
Track 19 not present in database
Track 20 not present in database
None of the tracks are present in the AccurateRip database
End of status report
---- CUETools DB Plugin V2.1.3
[CTDB TOCID: 6TNfEdpCTPrvEkxBAk_EjUMSSKk-] found, Submit result: already submitted
[dcd55368] (1/1) Accurately ripped
==== Log checksum 3D6B68BF02DD1F11C88215F4110CF67360B819F4EC47861010F31BD8A0AA0C4A ====

Содержание индексной карты (.CUE)

REM GENRE Pop
REM DATE 2012
REM DISCID 140FBD14
REM COMMENT "ExactAudioCopy v1.0b3"
PERFORMER "Various Artists"
TITLE "Mega Hits 2013 CD2"
FILE "Various Artists - Mega Hits 2013 CD2.wav" WAVE
TRACK 01 AUDIO
TITLE "INNdiA (Ciprian Robu Dubstep Remix)"
PERFORMER "Inna feat. Play & Win"
FLAGS DCP
INDEX 01 00:00:00
TRACK 02 AUDIO
TITLE "Bara Bara"
PERFORMER "Michel Telo"
FLAGS DCP
INDEX 00 03:14:07
INDEX 01 03:16:07
TRACK 03 AUDIO
TITLE "Biniditat (Radio Edit)"
PERFORMER "Skizzo Skillz feat. Karie"
FLAGS DCP
INDEX 00 06:00:31
INDEX 01 06:02:31
TRACK 04 AUDIO
TITLE "La Trompette (Bernasconi Radio Edit)"
PERFORMER "Gary Caos vs. Rico Bernasconi feat. In-Grid"
FLAGS DCP
INDEX 00 09:10:21
INDEX 01 09:12:21
TRACK 05 AUDIO
TITLE "Back In My Life (Radio Edit)"
PERFORMER "Fly Project"
FLAGS DCP
INDEX 00 12:12:30
INDEX 01 12:14:30
TRACK 06 AUDIO
TITLE "Amo"
PERFORMER "Anda Adam"
FLAGS DCP
INDEX 00 15:31:13
INDEX 01 15:33:13
TRACK 07 AUDIO
TITLE "Beat On My Drum (Gabry Ponte Club Mix Radio Spanish)"
PERFORMER "Gabry Ponte feat. Pitbull and Sophia Del Carmen"
FLAGS DCP
INDEX 00 18:58:53
INDEX 01 19:00:53
TRACK 08 AUDIO
TITLE "You & Me (Radio Edit)"
PERFORMER "Electric Lady Lab"
FLAGS DCP
INDEX 00 22:03:19
INDEX 01 22:05:19
TRACK 09 AUDIO
TITLE "Wishing On A Star"
PERFORMER "Beverlei Brown"
FLAGS DCP
INDEX 00 25:57:12
INDEX 01 25:59:12
TRACK 10 AUDIO
TITLE "Groupie"
PERFORMER "Bob Sinclair"
FLAGS DCP
INDEX 00 29:08:72
INDEX 01 29:10:72
TRACK 11 AUDIO
TITLE "My Love (Bennie Becker Radio Edit)"
PERFORMER "Andreea Miss Ventura"
FLAGS DCP
INDEX 00 32:16:16
INDEX 01 32:18:16
TRACK 12 AUDIO
TITLE "Ciocolata"
PERFORMER "Mike Diamondz"
FLAGS DCP
INDEX 00 35:46:44
INDEX 01 35:48:44
TRACK 13 AUDIO
TITLE "Hero (Radio Edit)"
PERFORMER "Jessica D"
FLAGS DCP
INDEX 00 39:07:37
INDEX 01 39:09:37
TRACK 14 AUDIO
TITLE "Jamaika"
PERFORMER "Stroke 69"
FLAGS DCP
INDEX 00 42:37:29
INDEX 01 42:39:29
TRACK 15 AUDIO
TITLE "Esta Noche"
PERFORMER "Borys & Amna"
FLAGS DCP
INDEX 00 46:21:27
INDEX 01 46:23:27
TRACK 16 AUDIO
TITLE "Masquerade"
PERFORMER "Anthony"
FLAGS DCP
INDEX 00 49:26:71
INDEX 01 49:28:71
TRACK 17 AUDIO
TITLE "Made For Loving You"
PERFORMER "Deep Zone Project"
FLAGS DCP
INDEX 00 52:42:32
INDEX 01 52:44:32
TRACK 18 AUDIO
TITLE "It's All About You (Original Radio Edit)"
PERFORMER "Fawni"
FLAGS DCP
INDEX 00 56:37:06
INDEX 01 56:39:06
TRACK 19 AUDIO
TITLE "Run Run Run (Ciprian Robu Remix Edit)"
PERFORMER "Nom de Guerre"
FLAGS DCP
INDEX 00 60:17:01
INDEX 01 60:19:01
TRACK 20 AUDIO
TITLE "Ploua Cu Bani"
PERFORMER "Zero"
FLAGS DCP
INDEX 00 64:04:37
INDEX 01 64:06:37
[Профиль] [ЛС]

Создавать темы 13-Авг-2015 11:15 (спустя 2 месяца 12 дней)

Топик был перенесен из форума Сборники в форум World Pop
sergej644
 
Кто просматривает тему:

Показать сообщения:    

Текущее время: Сегодня 01:19

Часовой пояс: GMT



Вы не можете начинать темы
Вы не можете отвечать на сообщения
Вы не можете редактировать свои сообщения
Вы не можете удалять свои сообщения
Вы не можете голосовать в опросах
Вы не можете прикреплять файлы к сообщениям
Вы не можете скачивать файлы