(Pop/R'n'B) Whitney Houston - Discography (12 CD) - 1985 - 2009, FLAC (image+.cue), lossless

 
Автор Сообщение

sergej644 ®

Пол:

Стаж: 4 года 11 месяцев

Сообщений: 6044

Откуда: Soviet Union



Награды: Нет

Торрент-статистика

Создавать темы 01-Ноя-2014 13:17

[Цитировать]

★●• Whitney Houston - Discography (12 CD) •●★- ---Жанр: Pop/R'n'BСтрана-производитель диска: Japan, GermanyГод издания диска: 1985 - 2009
Аудиокодек: FLAC (*.flac)Тип рипа: image+.cueБитрейт аудио: lossless
Наличие сканов в содержимом раздачи: да
Источник (релизер):
--

1985 - Whitney Houston - 47:23 • 1985 1st Press • Nippon Phonogram Co.,Ltd./Japan/32RD-31

01. How Will I Know [0:04:32.07]
02. All At Once [0:04:29.68]
03. Take Good Care Of My Heart (Duet With Jermaine Jackson) [0:04:21.67]
04. Greatest Love Of All [0:04:58.18]
05. Hold Me (Duet With Teddy Pendergrass) [0:06:05.12]
06. You Give Good Love [0:04:36.73]
07. Thinking About You [0:05:28.40]
08. Someone For Me [0:05:01.50]
09. Saving All My Love For You [0:04:01.12]
10. Nobody Loves Me Like You Do (Duet With Jermaine Jackson) [0:03:47.43]

EAC

Exact Audio Copy V1.0 beta 3 from 29. August 2011
EAC extraction logfile from 25. May 2013, 17:28
Whitney Houston / Whitney Houston
Used drive  : PIONEER DVD-RW  DVR-112D   Adapter: 2  ID: 1
Read mode               : Secure
Utilize accurate stream : Yes
Defeat audio cache      : Yes
Make use of C2 pointers : No
Read offset correction                      : 48
Overread into Lead-In and Lead-Out          : No
Fill up missing offset samples with silence : Yes
Delete leading and trailing silent blocks   : No
Null samples used in CRC calculations       : Yes
Used interface                              : Installed external ASPI interface
Used output format              : User Defined Encoder
Selected bitrate                : 1024 kBit/s
Quality                         : High
Add ID3 tag                     : No
Command line compressor         : C:\Program Files (x86)\Exact Audio Copy\Flac\flac.exe
Additional command line options : -8 -V -T "Date=%year%" -T "Genre=%genre%" -T "COMMENT=ripped by bvstudio®" %source%
TOC of the extracted CD
     Track |   Start  |  Length  | Start sector | End sector
    ---------------------------------------------------------
        1  |  0:00.00 |  4:32.07 |         0    |    20406
        2  |  4:32.07 |  4:29.68 |     20407    |    40649
        3  |  9:02.00 |  4:21.67 |     40650    |    60291
        4  | 13:23.67 |  4:58.18 |     60292    |    82659
        5  | 18:22.10 |  6:05.12 |     82660    |   110046
        6  | 24:27.22 |  4:36.73 |    110047    |   130819
        7  | 29:04.20 |  5:28.40 |    130820    |   155459
        8  | 34:32.60 |  5:01.50 |    155460    |   178084
        9  | 39:34.35 |  4:01.12 |    178085    |   196171
       10  | 43:35.47 |  3:47.43 |    196172    |   213239
Range status and errors
Selected range
     Filename F:\Whitney Houston\1985 - Whitney Houston (1985 - 32RD-31)\Whitney Houston - Whitney Houston.wav
     Peak level 100.0 %
     Extraction speed 7.0 X
     Range quality 100.0 %
     Test CRC 93562D55
     Copy CRC 93562D55
     Copy OK
No errors occurred
AccurateRip summary
Track  1  cannot be verified as accurate (confidence 3)  [1EFC7AF9], AccurateRip returned [1E8AC096]  (AR v2)
Track  2  cannot be verified as accurate (confidence 3)  [60CD7E8A], AccurateRip returned [ED327AC4]  (AR v2)
Track  3  cannot be verified as accurate (confidence 3)  [B3B6DAD5], AccurateRip returned [360EC15E]  (AR v2)
Track  4  cannot be verified as accurate (confidence 3)  [45496218], AccurateRip returned [C5A748B0]  (AR v2)
Track  5  cannot be verified as accurate (confidence 3)  [47204B16], AccurateRip returned [DEBD6D4B]  (AR v2)
Track  6  cannot be verified as accurate (confidence 3)  [7BD5E145], AccurateRip returned [B2B52609]  (AR v2)
Track  7  cannot be verified as accurate (confidence 3)  [0BCCB908], AccurateRip returned [3EDA8776]  (AR v2)
Track  8  cannot be verified as accurate (confidence 3)  [16E08F8F], AccurateRip returned [7876775F]  (AR v2)
Track  9  cannot be verified as accurate (confidence 3)  [93F1E36E], AccurateRip returned [C6F86416]  (AR v2)
Track 10  cannot be verified as accurate (confidence 3)  [50C6A5BB], AccurateRip returned [2114DC4C]  (AR v2)
No tracks could be verified as accurate
You may have a different pressing from the one(s) in the database
End of status report
---- CUETools DB Plugin V2.1.5
[CTDB TOCID: yaseTKLNWPiI_VSkbcCsAQnKdDU-] found
Submit result: yaseTKLNWPiI_VSkbcCsAQnKdDU- has been confirmed
Track | CTDB Status
  1   | (3/7) Accurately ripped
  2   | (3/7) Accurately ripped
  3   | (3/7) Accurately ripped
  4   | (3/7) Accurately ripped
  5   | (3/7) Accurately ripped
  6   | (3/7) Accurately ripped
  7   | (3/7) Accurately ripped
  8   | (2/7) Accurately ripped, or (1/7) differs in 2 samples @01:54:63
  9   | (3/7) Accurately ripped
10   | (3/7) Accurately ripped
==== Log checksum 50B507C5B2A191AB7E3716A21E4E59ACE7C675C33767A175ED8D1D4C7C570770 ====

Dynamic Range Meter

foobar2000 1.2.6 / Dynamic Range Meter 1.1.1
log date: 2013-05-26 18:38:10
--------------------------------------------------------------------------------
Analyzed: Whitney Houston / Whitney Houston
--------------------------------------------------------------------------------
DR         Peak         RMS     Duration Track
--------------------------------------------------------------------------------
DR16      -1.53 dB   -19.39 dB      4:32 01-How Will I Know
DR14      -3.50 dB   -22.46 dB      4:30 02-All At Once
DR15      -0.32 dB   -18.76 dB      4:22 03-Take Good Care Of My Heart (Duet With Jermaine Jackson)
DR15      -1.82 dB   -21.51 dB      4:58 04-Greatest Love Of All
DR13      -5.80 dB   -22.50 dB      6:05 05-Hold Me (Duet With Teddy Pendergrass)
DR15       0.00 dB   -18.72 dB      4:37 06-You Give Good Love
DR18       0.00 dB   -20.38 dB      5:29 07-Thinking About You
DR16      -1.05 dB   -20.22 dB      5:02 08-Someone For Me
DR14      -1.69 dB   -19.88 dB      4:01 09-Saving All My Love For You
DR14      -2.33 dB   -22.44 dB      3:48 10-Nobody Loves Me Like You Do (Duet With Jermaine Jackson)
--------------------------------------------------------------------------------
Number of tracks:  10
Official DR value: DR15
Samplerate:        44100 Hz
Channels:          2
Bits per sample:   16
Bitrate:           864 kbps
Codec:             FLAC
================================================================================

1985 - Whitney Houston (The Deluxe Anniversary Edition) - 79:49 ★2010 Edition★ Sony Music Japan Int'l Inc./Japan/SICP 2585~6

01. You Give Good Love [0:04:36.49]
02. Thinking About You [0:05:28.58]
03. Someone For Me [0:05:01.29]
04. Saving All My Love For You [0:04:01.11]
05. Nobody Loves Me Like You Do (with Jermaine Jackson) [0:03:46.70]
06. How Will I Know [0:04:37.56]
07. All At Once [0:04:29.12]
08. Take Good Care Of My Heart (with Jermaine Jackson) [0:04:21.55]
09. Greatest Love Of All [0:04:58.13]
10. Hold Me (with Teddy Pendergrass) [0:06:05.11]
11. Thinking About You (12-Inch Dance Remix) [0:07:16.67]
12. Someone For Me (12-Inch Dance Remix) [0:07:25.51]
13. How Will I Know (Acappella) [0:04:00.41]
14. How Will I Know (12-Inch Dance Remix) [0:06:32.43]
15. Greatest Love Of All (Live From The Arista Records 15th Anniversary Celebration, 1990) [0:07:06.17]

EAC

Exact Audio Copy V1.0 beta 3 from 29. August 2011
EAC extraction logfile from 25. May 2013, 17:56
Whitney Houston / Whitney Houston (The Deluxe Anniversary Edition)
Used drive  : PIONEER DVD-RW  DVR-112D   Adapter: 2  ID: 1
Read mode               : Secure
Utilize accurate stream : Yes
Defeat audio cache      : Yes
Make use of C2 pointers : No
Read offset correction                      : 48
Overread into Lead-In and Lead-Out          : No
Fill up missing offset samples with silence : Yes
Delete leading and trailing silent blocks   : No
Null samples used in CRC calculations       : Yes
Used interface                              : Installed external ASPI interface
Used output format              : User Defined Encoder
Selected bitrate                : 1024 kBit/s
Quality                         : High
Add ID3 tag                     : No
Command line compressor         : C:\Program Files (x86)\Exact Audio Copy\Flac\flac.exe
Additional command line options : -8 -V -T "Date=%year%" -T "Genre=%genre%" -T "COMMENT=ripped by bvstudio®" %source%
TOC of the extracted CD
     Track |   Start  |  Length  | Start sector | End sector
    ---------------------------------------------------------
        1  |  0:00.00 |  4:36.49 |         0    |    20748
        2  |  4:36.49 |  5:28.58 |     20749    |    45406
        3  | 10:05.32 |  5:01.29 |     45407    |    68010
        4  | 15:06.61 |  4:01.11 |     68011    |    86096
        5  | 19:07.72 |  3:46.70 |     86097    |   103116
        6  | 22:54.67 |  4:37.56 |    103117    |   123947
        7  | 27:32.48 |  4:29.12 |    123948    |   144134
        8  | 32:01.60 |  4:21.55 |    144135    |   163764
        9  | 36:23.40 |  4:58.13 |    163765    |   186127
       10  | 41:21.53 |  6:05.11 |    186128    |   213513
       11  | 47:26.64 |  7:16.67 |    213514    |   246280
       12  | 54:43.56 |  7:25.51 |    246281    |   279706
       13  | 62:09.32 |  4:00.41 |    279707    |   297747
       14  | 66:09.73 |  6:32.43 |    297748    |   327190
       15  | 72:42.41 |  7:06.17 |    327191    |   359157
Range status and errors
Selected range
     Filename F:\Whitney Houston\1985 - Whitney Houston (The Deluxe Anniversary Edition) (2010 - SICP 2585-6)\Whitney Houston - Whitney Houston (The Deluxe Anniversary Edition).wav
     Peak level 99.8 %
     Extraction speed 8.2 X
     Range quality 99.9 %
     Test CRC 88596E4C
     Copy CRC 88596E4C
     Copy OK
No errors occurred
AccurateRip summary
Track  1  accurately ripped (confidence 8)  [D6418702]  (AR v2)
Track  2  accurately ripped (confidence 8)  [E5D32D69]  (AR v2)
Track  3  accurately ripped (confidence 8)  [A9B0A550]  (AR v2)
Track  4  accurately ripped (confidence 8)  [A3C74992]  (AR v2)
Track  5  accurately ripped (confidence 8)  [152916CC]  (AR v2)
Track  6  accurately ripped (confidence 8)  [64A62642]  (AR v2)
Track  7  accurately ripped (confidence 8)  [CAF6F02B]  (AR v2)
Track  8  accurately ripped (confidence 8)  [458F5140]  (AR v2)
Track  9  accurately ripped (confidence 8)  [B1AC3B95]  (AR v2)
Track 10  accurately ripped (confidence 8)  [71D38203]  (AR v2)
Track 11  accurately ripped (confidence 7)  [805C5867]  (AR v2)
Track 12  accurately ripped (confidence 8)  [0EC3A0CE]  (AR v2)
Track 13  accurately ripped (confidence 8)  [98E9578E]  (AR v2)
Track 14  accurately ripped (confidence 8)  [FFAB37D0]  (AR v2)
Track 15  accurately ripped (confidence 6)  [64D13E79]  (AR v2)
All tracks accurately ripped
End of status report
---- CUETools DB Plugin V2.1.5
[CTDB TOCID: 12COtNndANrcD_iUw8XLsOoNlmU-] found
Submit result: 12COtNndANrcD_iUw8XLsOoNlmU- has been confirmed
Track | CTDB Status
  1   | (21/21) Accurately ripped
  2   | (21/21) Accurately ripped
  3   | (21/21) Accurately ripped
  4   | (21/21) Accurately ripped
  5   | (21/21) Accurately ripped
  6   | (21/21) Accurately ripped
  7   | (21/21) Accurately ripped
  8   | (21/21) Accurately ripped
  9   | (21/21) Accurately ripped
10   | (21/21) Accurately ripped
11   | (20/21) Accurately ripped
12   | (21/21) Accurately ripped
13   | (20/21) Accurately ripped
14   | (18/21) Accurately ripped
15   | (17/21) Accurately ripped
==== Log checksum 728B3335928D2A44F460008D9628554B31B97DF1C48444B3A2CAAECB40F375B3 ====

Dynamic Range Meter

foobar2000 1.2.6 / Dynamic Range Meter 1.1.1
log date: 2013-05-26 18:38:50
--------------------------------------------------------------------------------
Analyzed: Whitney Houston / Whitney Houston (The Deluxe Anniversary Edition)
--------------------------------------------------------------------------------
DR         Peak         RMS     Duration Track
--------------------------------------------------------------------------------
DR9       -0.01 dB   -11.78 dB      4:37 01-You Give Good Love
DR12      -0.01 dB   -14.07 dB      5:29 02-Thinking About You
DR13      -0.01 dB   -14.38 dB      5:01 03-Someone For Me
DR10      -0.01 dB   -13.70 dB      4:01 04-Saving All My Love For You
DR12      -0.01 dB   -15.86 dB      3:47 05-Nobody Loves Me Like You Do (with Jermaine Jackson)
DR11      -0.01 dB   -12.59 dB      4:38 06-How Will I Know
DR13      -0.22 dB   -16.17 dB      4:29 07-All At Once
DR10      -0.01 dB   -12.18 dB      4:22 08-Take Good Care Of My Heart (with Jermaine Jackson)
DR12      -0.01 dB   -15.24 dB      4:58 09-Greatest Love Of All
DR13      -0.03 dB   -15.83 dB      6:05 10-Hold Me (with Teddy Pendergrass)
DR11      -1.28 dB   -14.04 dB      7:17 11-Thinking About You (12-Inch Dance Remix)
DR11      -0.22 dB   -12.64 dB      7:26 12-Someone For Me (12-Inch Dance Remix)
DR14      -1.82 dB   -18.20 dB      4:01 13-How Will I Know (Acappella)
DR12      -0.01 dB   -14.30 dB      6:33 14-How Will I Know (12-Inch Dance Remix)
DR8       -0.01 dB   -12.01 dB      7:06 15-Greatest Love Of All (Live From The Arista Records 15th Anniversary Celebration, 1990)
--------------------------------------------------------------------------------
Number of tracks:  15
Official DR value: DR11
Samplerate:        44100 Hz
Channels:          2
Bits per sample:   16
Bitrate:           897 kbps
Codec:             FLAC
================================================================================

1986 - Whitney Dancin' Special - 39:00 ★ 1986 1st Press (Released only in Japan) ★ Nippon Phonogram Co.,Ltd./Japan/28RD-76

01. How Will I Know (Dance Remix) [0:06:34.35]
02. You Give Good Love (Extended Version) [0:04:50.08]
03. Thinking About You (Extended Dance Version) [0:07:18.27]
04. Someone For Me (Remix) [0:07:24.18]
05. Thinking About You (Dub Version) [0:08:09.62]
06. How Will I Know (Instrumental Version) [0:04:42.73]

EAC

Exact Audio Copy V1.0 beta 3 from 29. August 2011
EAC extraction logfile from 25. May 2013, 16:50
Whitney Houston / Whitney Dancin' Special
Used drive  : PIONEER DVD-RW  DVR-112D   Adapter: 2  ID: 1
Read mode               : Secure
Utilize accurate stream : Yes
Defeat audio cache      : Yes
Make use of C2 pointers : No
Read offset correction                      : 48
Overread into Lead-In and Lead-Out          : No
Fill up missing offset samples with silence : Yes
Delete leading and trailing silent blocks   : No
Null samples used in CRC calculations       : Yes
Used interface                              : Installed external ASPI interface
Used output format              : User Defined Encoder
Selected bitrate                : 1024 kBit/s
Quality                         : High
Add ID3 tag                     : No
Command line compressor         : C:\Program Files (x86)\Exact Audio Copy\Flac\flac.exe
Additional command line options : -8 -V -T "Date=%year%" -T "Genre=%genre%" -T "COMMENT=ripped by bvstudio®" %source%
TOC of the extracted CD
     Track |   Start  |  Length  | Start sector | End sector
    ---------------------------------------------------------
        1  |  0:00.37 |  6:34.35 |        37    |    29621
        2  |  6:34.72 |  4:50.08 |     29622    |    51379
        3  | 11:25.05 |  7:18.27 |     51380    |    84256
        4  | 18:43.32 |  7:24.18 |     84257    |   117574
        5  | 26:07.50 |  8:09.62 |    117575    |   154311
        6  | 34:17.37 |  4:42.73 |    154312    |   175534
Range status and errors
Selected range
     Filename F:\Whitney Houston\1986 - Whitney Dancin' Special (1986 - 28RD-76)\Whitney Houston - Whitney Dancin' Special.wav
     Peak level 100.0 %
     Extraction speed 6.7 X
     Range quality 100.0 %
     Test CRC 978A867A
     Copy CRC 978A867A
     Copy OK
No errors occurred
AccurateRip summary
Track  1  cannot be verified as accurate (confidence 9)  [9E36C4CF], AccurateRip returned [5E5A4160]  (AR v2)
Track  2  cannot be verified as accurate (confidence 9)  [D0B7747F], AccurateRip returned [D3698EAB]  (AR v2)
Track  3  cannot be verified as accurate (confidence 9)  [A3546B3B], AccurateRip returned [38305DAC]  (AR v2)
Track  4  cannot be verified as accurate (confidence 10)  [7C23261D], AccurateRip returned [E338FE76]  (AR v2)
Track  5  cannot be verified as accurate (confidence 10)  [9E605E58], AccurateRip returned [62E41E85]  (AR v2)
Track  6  cannot be verified as accurate (confidence 10)  [7BBD5D42], AccurateRip returned [9BECC31B]  (AR v2)
No tracks could be verified as accurate
You may have a different pressing from the one(s) in the database
End of status report
---- CUETools DB Plugin V2.1.5
[CTDB TOCID: K.yGwbdktrIwmI0IrQRdqHvTRWI-] found
Submit result: already submitted
Track | CTDB Status
  1   | (1/1) Accurately ripped
  2   | (1/1) Accurately ripped
  3   | (1/1) Accurately ripped
  4   | (1/1) Accurately ripped
  5   | (1/1) Accurately ripped
  6   | (1/1) Accurately ripped
==== Log checksum ED4A3282482198B80756A977094DC4168704F9C8D459605AEA088609AB029831 ====

Dynamic Range Meter

foobar2000 1.2.6 / Dynamic Range Meter 1.1.1
log date: 2013-05-25 17:09:10
--------------------------------------------------------------------------------
Analyzed: Whitney Houston / Whitney Dancin' Special
--------------------------------------------------------------------------------
DR         Peak         RMS     Duration Track
--------------------------------------------------------------------------------
DR12      -0.63 dB   -15.00 dB      6:34 01-How Will I Know (Dance Remix)
DR12       0.00 dB   -14.52 dB      4:50 02-You Give Good Love (Extended Version)
DR14      -0.23 dB   -16.79 dB      7:18 03-Thinking About You (Extended Dance Version)
DR15       0.00 dB   -16.81 dB      7:24 04-Someone For Me (Remix)
DR14       0.00 dB   -16.62 dB      8:10 05-Thinking About You (Dub Version)
DR14      -0.63 dB   -16.28 dB      4:43 06-How Will I Know (Instrumental Version)
--------------------------------------------------------------------------------
Number of tracks:  6
Official DR value: DR13
Samplerate:        44100 Hz
Channels:          2
Bits per sample:   16
Bitrate:           888 kbps
Codec:             FLAC
================================================================================

1987 - Whitney - 53:07 ★ 1987 1st Press ★ Nippon Phonogram Co.,Ltd./Japan/32RD-93

01. I Wanna Dance With Somebody (Who Loves Me) [0:04:53.37]
02. Just The Lonely Talking Again [0:05:34.30]
03. Love Will Save The Day [0:05:25.05]
04. Didn't We Almost Have It All [0:05:07.08]
05. So Emotional [0:04:34.45]
06. Where You Are [0:04:11.27]
07. Love Is A Contact Sport [0:04:19.63]
08. You're Still My Man [0:04:18.62]
09. For The Love Of You [0:05:33.45]
10. Where Do Broken Hearts Go [0:04:38.63]
11. I Know Him So Well (Duet with Cissy Houston) [0:04:29.70]

EAC

Exact Audio Copy V1.0 beta 3 from 29. August 2011
EAC extraction logfile from 25. May 2013, 18:19
Whitney Houston / Whitney
Used drive  : PIONEER DVD-RW  DVR-112D   Adapter: 2  ID: 1
Read mode               : Secure
Utilize accurate stream : Yes
Defeat audio cache      : Yes
Make use of C2 pointers : No
Read offset correction                      : 48
Overread into Lead-In and Lead-Out          : No
Fill up missing offset samples with silence : Yes
Delete leading and trailing silent blocks   : No
Null samples used in CRC calculations       : Yes
Used interface                              : Installed external ASPI interface
Used output format              : User Defined Encoder
Selected bitrate                : 1024 kBit/s
Quality                         : High
Add ID3 tag                     : No
Command line compressor         : C:\Program Files (x86)\Exact Audio Copy\Flac\flac.exe
Additional command line options : -8 -V -T "Date=%year%" -T "Genre=%genre%" -T "COMMENT=ripped by bvstudio®" %source%
TOC of the extracted CD
     Track |   Start  |  Length  | Start sector | End sector
    ---------------------------------------------------------
        1  |  0:00.00 |  4:53.37 |         0    |    22011
        2  |  4:53.37 |  5:34.30 |     22012    |    47091
        3  | 10:27.67 |  5:25.05 |     47092    |    71471
        4  | 15:52.72 |  5:07.08 |     71472    |    94504
        5  | 21:00.05 |  4:34.45 |     94505    |   115099
        6  | 25:34.50 |  4:11.27 |    115100    |   133951
        7  | 29:46.02 |  4:19.63 |    133952    |   153439
        8  | 34:05.65 |  4:18.62 |    153440    |   172851
        9  | 38:24.52 |  5:33.45 |    172852    |   197871
       10  | 43:58.22 |  4:38.63 |    197872    |   218784
       11  | 48:37.10 |  4:29.70 |    218785    |   239029
Range status and errors
Selected range
     Filename F:\Whitney Houston\1987 - Whitney (1987 - 32RD-93)\Whitney Houston - Whitney.wav
     Peak level 100.0 %
     Extraction speed 7.1 X
     Range quality 100.0 %
     Test CRC F4C0EA05
     Copy CRC F4C0EA05
     Copy OK
No errors occurred
AccurateRip summary
Track  1  not present in database
Track  2  not present in database
Track  3  not present in database
Track  4  not present in database
Track  5  not present in database
Track  6  not present in database
Track  7  not present in database
Track  8  not present in database
Track  9  not present in database
Track 10  not present in database
Track 11  not present in database
None of the tracks are present in the AccurateRip database
End of status report
---- CUETools DB Plugin V2.1.5
[CTDB TOCID: .n2QFjHaRt7wzxb9tJveddP.j2I-] found
Submit result: .n2QFjHaRt7wzxb9tJveddP.j2I- has been confirmed
Track | CTDB Status
  1   | (3/3) Accurately ripped
  2   | (3/3) Accurately ripped
  3   | (3/3) Accurately ripped
  4   | (3/3) Accurately ripped
  5   | (3/3) Accurately ripped
  6   | (3/3) Accurately ripped
  7   | (3/3) Accurately ripped
  8   | (3/3) Accurately ripped
  9   | (3/3) Accurately ripped
10   | (3/3) Accurately ripped
11   | (3/3) Accurately ripped
==== Log checksum 976A0013F9C37C127846027FFDC70CE0642FEB08181E874BF87822EB9EEF4486 ====

Dynamic Range Meter

foobar2000 1.2.6 / Dynamic Range Meter 1.1.1
log date: 2013-05-26 18:39:22
--------------------------------------------------------------------------------
Analyzed: Whitney Houston / Whitney
--------------------------------------------------------------------------------
DR         Peak         RMS     Duration Track
--------------------------------------------------------------------------------
DR12       0.00 dB   -13.49 dB      4:53 01-I Wanna Dance With Somebody (Who Loves Me)
DR11      -2.04 dB   -15.77 dB      5:34 02-Just The Lonely Talking Again
DR13      -0.40 dB   -14.75 dB      5:25 03-Love Will Save The Day
DR12      -0.15 dB   -14.36 dB      5:07 04-Didn't We Almost Have It All
DR12      -0.96 dB   -14.74 dB      4:35 05-So Emotional
DR12       0.00 dB   -14.68 dB      4:11 06-Where You Are
DR12       0.00 dB   -14.18 dB      4:20 07-Love Is A Contact Sport
DR12       0.00 dB   -14.55 dB      4:19 08-You're Still My Man
DR12      -0.59 dB   -15.09 dB      5:34 09-For The Love Of You
DR12       0.00 dB   -15.81 dB      4:39 10-Where Do Broken Hearts Go
DR13       0.00 dB   -16.98 dB      4:30 11-I Know Him So Well (Duet with Cissy Houston)
--------------------------------------------------------------------------------
Number of tracks:  11
Official DR value: DR12
Samplerate:        44100 Hz
Channels:          2
Bits per sample:   16
Bitrate:           923 kbps
Codec:             FLAC
================================================================================

1990 - I'm Your Baby Tonight - 62:25 ★ 1990 1st Press ★ BMG Victor, Inc./Japan/BVCA-9

01. I'm Your Baby Tonight [0:04:13.70]
02. My Name Is Not Susan [0:04:40.25]
03. All The Man That I Need [0:04:10.62]
04. Lover For Life [0:04:49.00]
05. Anymore [0:04:23.70]
06. Miracle [0:05:42.45]
07. I Belong To You [0:05:31.28]
08. Who Do You Love [0:03:56.25]
09. We Didn't Know (Duet with Stevie Wonder) [0:05:31.52]
10. After We Make Love [0:05:06.15]
11. I'm Knockin' [0:04:58.20]
12. Takin' A Chance [0:04:11.18]
13. Higher Love [0:05:09.15]

EAC

Exact Audio Copy V1.0 beta 3 from 29. August 2011
EAC extraction logfile from 25. May 2013, 18:43
Whitney Houston / I'm Your Baby Tonight
Used drive  : PIONEER DVD-RW  DVR-112D   Adapter: 2  ID: 1
Read mode               : Secure
Utilize accurate stream : Yes
Defeat audio cache      : Yes
Make use of C2 pointers : No
Read offset correction                      : 48
Overread into Lead-In and Lead-Out          : No
Fill up missing offset samples with silence : Yes
Delete leading and trailing silent blocks   : No
Null samples used in CRC calculations       : Yes
Used interface                              : Installed external ASPI interface
Used output format              : User Defined Encoder
Selected bitrate                : 1024 kBit/s
Quality                         : High
Add ID3 tag                     : No
Command line compressor         : C:\Program Files (x86)\Exact Audio Copy\Flac\flac.exe
Additional command line options : -8 -V -T "Date=%year%" -T "Genre=%genre%" -T "COMMENT=ripped by bvstudio®" %source%
TOC of the extracted CD
     Track |   Start  |  Length  | Start sector | End sector
    ---------------------------------------------------------
        1  |  0:00.00 |  4:13.70 |         0    |    19044
        2  |  4:13.70 |  4:40.25 |     19045    |    40069
        3  |  8:54.20 |  4:10.62 |     40070    |    58881
        4  | 13:05.07 |  4:49.00 |     58882    |    80556
        5  | 17:54.07 |  4:23.70 |     80557    |   100351
        6  | 22:18.02 |  5:42.45 |    100352    |   126046
        7  | 28:00.47 |  5:31.28 |    126047    |   150899
        8  | 33:32.00 |  3:56.25 |    150900    |   168624
        9  | 37:28.25 |  5:31.52 |    168625    |   193501
       10  | 43:00.02 |  5:06.15 |    193502    |   216466
       11  | 48:06.17 |  4:58.20 |    216467    |   238836
       12  | 53:04.37 |  4:11.18 |    238837    |   257679
       13  | 57:15.55 |  5:09.15 |    257680    |   280869
Range status and errors
Selected range
     Filename F:\Whitney Houston\1990 - I'm Your Baby Tonight (1990 - BVCA-9)\Whitney Houston - I'm Your Baby Tonight.wav
     Peak level 100.0 %
     Extraction speed 7.7 X
     Range quality 100.0 %
     Test CRC 01CD0305
     Copy CRC 01CD0305
     Copy OK
No errors occurred
AccurateRip summary
Track  1  accurately ripped (confidence 2)  [848D72B0]  (AR v2)
Track  2  accurately ripped (confidence 2)  [E082993C]  (AR v2)
Track  3  accurately ripped (confidence 2)  [6FFA62E8]  (AR v2)
Track  4  accurately ripped (confidence 2)  [71E251BE]  (AR v2)
Track  5  accurately ripped (confidence 2)  [1D7D0E34]  (AR v2)
Track  6  accurately ripped (confidence 2)  [C74DBA3B]  (AR v2)
Track  7  accurately ripped (confidence 2)  [A41F4D0E]  (AR v2)
Track  8  accurately ripped (confidence 2)  [06CDF23D]  (AR v2)
Track  9  accurately ripped (confidence 2)  [01EDE189]  (AR v2)
Track 10  accurately ripped (confidence 2)  [338E014D]  (AR v2)
Track 11  accurately ripped (confidence 2)  [AC41558B]  (AR v2)
Track 12  accurately ripped (confidence 2)  [38A7F31E]  (AR v2)
Track 13  accurately ripped (confidence 2)  [98C18958]  (AR v2)
All tracks accurately ripped
End of status report
---- CUETools DB Plugin V2.1.5
[CTDB TOCID: MBgfpGh6r9yLtiWRQXNCPxwuje0-] found
Submit result: MBgfpGh6r9yLtiWRQXNCPxwuje0- has been confirmed
Track | CTDB Status
  1   | (3/3) Accurately ripped
  2   | (3/3) Accurately ripped
  3   | (3/3) Accurately ripped
  4   | (3/3) Accurately ripped
  5   | (3/3) Accurately ripped
  6   | (3/3) Accurately ripped
  7   | (3/3) Accurately ripped
  8   | (3/3) Accurately ripped
  9   | (3/3) Accurately ripped
10   | (3/3) Accurately ripped
11   | (3/3) Accurately ripped
12   | (3/3) Accurately ripped
13   | (3/3) Accurately ripped
==== Log checksum D1E13B279946D2ABF56429E7F38ED83D19BA0EFA86179E2C32284A6F7304092F ====

Dynamic Range Meter

foobar2000 1.2.6 / Dynamic Range Meter 1.1.1
log date: 2013-05-26 18:39:53
--------------------------------------------------------------------------------
Analyzed: Whitney Houston / I'm Your Baby Tonight
--------------------------------------------------------------------------------
DR         Peak         RMS     Duration Track
--------------------------------------------------------------------------------
DR12      -0.47 dB   -13.87 dB      4:14 01-I'm Your Baby Tonight
DR11       0.00 dB   -13.32 dB      4:40 02-My Name Is Not Susan
DR11      -0.05 dB   -14.13 dB      4:11 03-All The Man That I Need
DR12      -0.03 dB   -14.24 dB      4:49 04-Lover For Life
DR11       0.00 dB   -12.79 dB      4:24 05-Anymore
DR12       0.00 dB   -14.58 dB      5:43 06-Miracle
DR11      -0.47 dB   -13.77 dB      5:31 07-I Belong To You
DR12       0.00 dB   -13.85 dB      3:56 08-Who Do You Love
DR12       0.00 dB   -13.44 dB      5:32 09-We Didn't Know (Duet with Stevie Wonder)
DR10      -1.30 dB   -13.62 dB      5:06 10-After We Make Love
DR13       0.00 dB   -15.26 dB      4:58 11-I'm Knockin'
DR13      -0.27 dB   -15.87 dB      4:11 12-Takin' A Chance
DR12       0.00 dB   -13.57 dB      5:09 13-Higher Love
--------------------------------------------------------------------------------
Number of tracks:  13
Official DR value: DR12
Samplerate:        44100 Hz
Channels:          2
Bits per sample:   16
Bitrate:           953 kbps
Codec:             FLAC
================================================================================

1992 - The Bodyguard (Music From The Original Motion Picture Soundtrack) - 57:42 ★ 1992 1st Press ★ BMG Victor, Inc./Japan/BVCA-152

01. Whitney Houston / I Will Always Love You [0:04:31.43]
02. Whitney Houston / I Have Nothing [0:04:50.02]
03. Whitney Houston / I'm Every Woman [0:04:46.45]
04. Whitney Houston / Run To You [0:04:24.28]
05. Whitney Houston / Queen Of The Night [0:03:09.52]
06. Whitney Houston / Jesus Loves Me [0:05:12.35]
07. Kenny G And Aaron Neville / Even If My Heart Would Break [0:04:57.70]
08. Lisa Stansfield / Someday (I'm Coming Back) [0:04:58.63]
09. The S.O.U.L. S.Y.S.T.E.M. / It's Gonna Be A Lovely Day [0:04:51.12]
10. Curtis Stigers / (What's So Funny 'Bout) Peace, Love And Understanding [0:04:05.20]
11. Kenny G / Waiting For You [0:04:56.55]
12. Joe Cocker And Sass Jordan / Trust In Me [0:04:13.28]
13. Alan Silvestri / Theme Grom The Bodyguard [0:02:43.32]

EAC

Exact Audio Copy V1.0 beta 3 from 29. August 2011
EAC extraction logfile from 25. May 2013, 19:12
Various / The Bodyguard
Used drive  : PIONEER DVD-RW  DVR-112D   Adapter: 2  ID: 1
Read mode               : Secure
Utilize accurate stream : Yes
Defeat audio cache      : Yes
Make use of C2 pointers : No
Read offset correction                      : 48
Overread into Lead-In and Lead-Out          : No
Fill up missing offset samples with silence : Yes
Delete leading and trailing silent blocks   : No
Null samples used in CRC calculations       : Yes
Used interface                              : Installed external ASPI interface
Used output format              : User Defined Encoder
Selected bitrate                : 1024 kBit/s
Quality                         : High
Add ID3 tag                     : No
Command line compressor         : C:\Program Files (x86)\Exact Audio Copy\Flac\flac.exe
Additional command line options : -8 -V -T "Date=%year%" -T "Genre=%genre%" -T "COMMENT=ripped by bvstudio®" %source%
TOC of the extracted CD
     Track |   Start  |  Length  | Start sector | End sector
    ---------------------------------------------------------
        1  |  0:00.37 |  4:31.43 |        37    |    20404
        2  |  4:32.05 |  4:50.02 |     20405    |    42156
        3  |  9:22.07 |  4:46.45 |     42157    |    63651
        4  | 14:08.52 |  4:24.28 |     63652    |    83479
        5  | 18:33.05 |  3:09.52 |     83480    |    97706
        6  | 21:42.57 |  5:12.35 |     97707    |   121141
        7  | 26:55.17 |  4:57.70 |    121142    |   143486
        8  | 31:53.12 |  4:58.63 |    143487    |   165899
        9  | 36:52.00 |  4:51.12 |    165900    |   187736
       10  | 41:43.12 |  4:05.20 |    187737    |   206131
       11  | 45:48.32 |  4:56.55 |    206132    |   228386
       12  | 50:45.12 |  4:13.28 |    228387    |   247389
       13  | 54:58.40 |  2:43.32 |    247390    |   259646
Range status and errors
Selected range
     Filename F:\Whitney Houston\1992 - The Bodyguard - Original Soundtrack Album (1992 - BVCA-152)\Various - The Bodyguard.wav
     Peak level 100.0 %
     Extraction speed 7.2 X
     Range quality 100.0 %
     Test CRC 6B5B37E9
     Copy CRC 6B5B37E9
     Copy OK
No errors occurred
AccurateRip summary
Track  1  cannot be verified as accurate (confidence 6)  [01FF4114], AccurateRip returned [6ED6A998]  (AR v2)
Track  2  cannot be verified as accurate (confidence 5)  [61FF9B9D], AccurateRip returned [BCEC1C16]  (AR v2)
Track  3  cannot be verified as accurate (confidence 5)  [9C05D7EB], AccurateRip returned [FF742A58]  (AR v2)
Track  4  cannot be verified as accurate (confidence 5)  [F37FF0D4], AccurateRip returned [8AF94CE2]  (AR v2)
Track  5  cannot be verified as accurate (confidence 5)  [A74E2B31], AccurateRip returned [B1393ECD]  (AR v2)
Track  6  cannot be verified as accurate (confidence 5)  [1FD02C21], AccurateRip returned [8DD112EC]  (AR v2)
Track  7  cannot be verified as accurate (confidence 6)  [D2A3598F], AccurateRip returned [B19B0BDA]  (AR v2)
Track  8  cannot be verified as accurate (confidence 6)  [27F2437C], AccurateRip returned [FC95D98D]  (AR v2)
Track  9  cannot be verified as accurate (confidence 6)  [23CBFA73], AccurateRip returned [7EDBF8AE]  (AR v2)
Track 10  cannot be verified as accurate (confidence 5)  [4D1B9300], AccurateRip returned [60A3471B]  (AR v2)
Track 11  cannot be verified as accurate (confidence 6)  [5A50B63B], AccurateRip returned [0E41D09D]  (AR v2)
Track 12  cannot be verified as accurate (confidence 5)  [16AF69E9], AccurateRip returned [75527B38]  (AR v2)
Track 13  cannot be verified as accurate (confidence 6)  [FAFFD061], AccurateRip returned [1B075004]  (AR v2)
No tracks could be verified as accurate
You may have a different pressing from the one(s) in the database
End of status report
---- CUETools DB Plugin V2.1.5
[CTDB TOCID: Xp95Ah4hp_bjfuM4livfr0BNB4E-] found
Submit result: Xp95Ah4hp_bjfuM4livfr0BNB4E- has been confirmed
Track | CTDB Status
  1   | (1/1) Accurately ripped
  2   | (1/1) Accurately ripped
  3   | (1/1) Accurately ripped
  4   | (1/1) Accurately ripped
  5   | (1/1) Accurately ripped
  6   | (1/1) Accurately ripped
  7   | (1/1) Accurately ripped
  8   | (1/1) Accurately ripped
  9   | (1/1) Accurately ripped
10   | (1/1) Accurately ripped
11   | (1/1) Accurately ripped
12   | (1/1) Accurately ripped
13   | (1/1) Accurately ripped
==== Log checksum AD06F0864596E59B5A4A28412AABE296B106559F5E316957126785F3F081B368 ====

Dynamic Range Meter

foobar2000 1.2.6 / Dynamic Range Meter 1.1.1
log date: 2013-05-26 18:40:07
--------------------------------------------------------------------------------
Analyzed: Curtis Stigers / The Bodyguard (1)
          Joe Cocker And Sass Jordan / The Bodyguard (2)
--------------------------------------------------------------------------------
DR         Peak         RMS     Duration Track
--------------------------------------------------------------------------------
DR11       0.00 dB   -13.09 dB      4:05 10-(What's So Funny 'Bout) Peace, Love And Understanding
DR11       0.00 dB   -12.43 dB      4:13 12-Trust  In Me
--------------------------------------------------------------------------------
Number of tracks:  2
Official DR value: DR11
Samplerate:        44100 Hz
Channels:          2
Bits per sample:   16
Bitrate:           879 kbps
Codec:             FLAC
================================================================================
--------------------------------------------------------------------------------
Analyzed: Kenny G And Aaron Neville / The Bodyguard (1)
          Kenny G / The Bodyguard (2)
--------------------------------------------------------------------------------
DR         Peak         RMS     Duration Track
--------------------------------------------------------------------------------
DR13       0.00 dB   -16.05 dB      4:58 07-Even If My Heart Would Break
DR12       0.00 dB   -13.91 dB      4:57 11-Waiting For You
--------------------------------------------------------------------------------
Number of tracks:  2
Official DR value: DR12
Samplerate:        44100 Hz
Channels:          2
Bits per sample:   16
Bitrate:           879 kbps
Codec:             FLAC
================================================================================
--------------------------------------------------------------------------------
Analyzed: Lisa Stansfield / The Bodyguard (1)
          The S.O.U.L. S.Y.S.T.E.M. / The Bodyguard (2)
--------------------------------------------------------------------------------
DR         Peak         RMS     Duration Track
--------------------------------------------------------------------------------
DR14       0.00 dB   -15.48 dB      4:59 08-Someday (I'm Coming Back)
DR10      -1.11 dB   -12.25 dB      4:51 09-It's Gonna Be A Lovely Day
--------------------------------------------------------------------------------
Number of tracks:  2
Official DR value: DR12
Samplerate:        44100 Hz
Channels:          2
Bits per sample:   16
Bitrate:           879 kbps
Codec:             FLAC
================================================================================
--------------------------------------------------------------------------------
Analyzed: Whitney Houston / The Bodyguard
--------------------------------------------------------------------------------
DR         Peak         RMS     Duration Track
--------------------------------------------------------------------------------
DR10      -1.44 dB   -16.04 dB      4:32 01-I Will Always Love You
DR12       0.00 dB   -15.21 dB      4:50 02-I Have Nothing
DR10       0.00 dB   -12.37 dB      4:47 03-I'm Every Woman
DR11       0.00 dB   -13.86 dB      4:24 04-Run To You
DR11       0.00 dB   -12.48 dB      3:10 05-Queen Of The Night
DR13      -0.01 dB   -15.85 dB      5:12 06-Jesus Loves Me
--------------------------------------------------------------------------------
Number of tracks:  6
Official DR value: DR11
Samplerate:        44100 Hz
Channels:          2
Bits per sample:   16
Bitrate:           879 kbps
Codec:             FLAC
================================================================================
foobar2000 1.2.6 / Dynamic Range Meter 1.1.1
log date: 2013-05-26 18:40:03
--------------------------------------------------------------------------------
Statistics for: 13-Theme Grom The Bodyguard
Number of samples: 7207116
Duration: 2:43
--------------------------------------------------------------------------------
                 Left              Right
Peak Value:     -3.91 dB   ---     -1.34 dB
Avg RMS:       -18.63 dB   ---    -17.06 dB
DR channel:     10.99 dB   ---     11.36 dB
--------------------------------------------------------------------------------
Official DR Value: DR11
Samplerate:        44100 Hz
Channels:          2
Bits per sample:   16
Bitrate:           879 kbps
Codec:             FLAC
================================================================================

1998 - My Love Is Your Love - 60:45 ★ 1998 1st Press ★ BMG Japan, Inc./Japan/BVCA-21017

01. It's Not Right But It's Okay [0:04:52.20]
02. Heartbreak Hotel (Feat. Faith Evans And Kelly Price) [0:04:41.37]
03. My Love Is Your Love [0:04:21.43]
04. When You Believe (Duet With Mariah Carey) [0:04:32.67]
05. If I Told You That [0:04:37.00]
06. In My Business (Feat. Missy "Misdemeanor'' Elliott) [0:03:27.23]
07. I Learned From The Best [0:04:20.70]
08. Oh Yes [0:06:47.37]
09. Get It Back [0:04:53.15]
10. Until You Come Back [0:04:52.60]
11. I Bow Out [0:04:30.70]
12. You'll Never Stand Alone [0:04:21.30]
13. I Was Made To Love Him [0:04:26.05]

EAC

Exact Audio Copy V1.0 beta 3 from 29. August 2011
EAC extraction logfile from 25. May 2013, 20:13
Whitney Houston / My Love Is Your Love
Used drive  : PIONEER DVD-RW  DVR-112D   Adapter: 2  ID: 1
Read mode               : Secure
Utilize accurate stream : Yes
Defeat audio cache      : Yes
Make use of C2 pointers : No
Read offset correction                      : 48
Overread into Lead-In and Lead-Out          : No
Fill up missing offset samples with silence : Yes
Delete leading and trailing silent blocks   : No
Null samples used in CRC calculations       : Yes
Used interface                              : Installed external ASPI interface
Used output format              : User Defined Encoder
Selected bitrate                : 1024 kBit/s
Quality                         : High
Add ID3 tag                     : No
Command line compressor         : C:\Program Files (x86)\Exact Audio Copy\Flac\flac.exe
Additional command line options : -8 -V -T "Date=%year%" -T "Genre=%genre%" -T "COMMENT=ripped by bvstudio®" %source%
TOC of the extracted CD
     Track |   Start  |  Length  | Start sector | End sector
    ---------------------------------------------------------
        1  |  0:00.00 |  4:52.20 |         0    |    21919
        2  |  4:52.20 |  4:41.37 |     21920    |    43031
        3  |  9:33.57 |  4:21.43 |     43032    |    62649
        4  | 13:55.25 |  4:32.67 |     62650    |    83116
        5  | 18:28.17 |  4:37.00 |     83117    |   103891
        6  | 23:05.17 |  3:27.23 |    103892    |   119439
        7  | 26:32.40 |  4:20.70 |    119440    |   139009
        8  | 30:53.35 |  6:47.37 |    139010    |   169571
        9  | 37:40.72 |  4:53.15 |    169572    |   191561
       10  | 42:34.12 |  4:52.60 |    191562    |   213521
       11  | 47:26.72 |  4:30.70 |    213522    |   233841
       12  | 51:57.67 |  4:21.30 |    233842    |   253446
       13  | 56:19.22 |  4:26.05 |    253447    |   273401
Range status and errors
Selected range
     Filename F:\Whitney Houston\1998 - My Love Is Your Love (1998 - BVCA-21017)\Whitney Houston - My Love Is Your Love.wav
     Peak level 100.0 %
     Extraction speed 1.8 X
     Range quality 99.9 %
     Test CRC 1EA35264
     Copy CRC 1EA35264
     Copy OK
No errors occurred
AccurateRip summary
Track  1  accurately ripped (confidence 2)  [E8AD3F9C]  (AR v1)
Track  2  accurately ripped (confidence 2)  [507178B7]  (AR v1)
Track  3  accurately ripped (confidence 2)  [2BEC9EAC]  (AR v1)
Track  4  accurately ripped (confidence 2)  [2E12C7AD]  (AR v1)
Track  5  accurately ripped (confidence 2)  [809A3583]  (AR v1)
Track  6  accurately ripped (confidence 2)  [20B00B4B]  (AR v1)
Track  7  accurately ripped (confidence 2)  [D954ADFD]  (AR v1)
Track  8  accurately ripped (confidence 2)  [14C77E82]  (AR v1)
Track  9  accurately ripped (confidence 2)  [B729543D]  (AR v1)
Track 10  accurately ripped (confidence 2)  [D4731D16]  (AR v1)
Track 11  accurately ripped (confidence 2)  [6E3E1EE1]  (AR v1)
Track 12  accurately ripped (confidence 2)  [19BCF626]  (AR v1)
Track 13  accurately ripped (confidence 2)  [0A8DBB47]  (AR v1)
All tracks accurately ripped
End of status report
---- CUETools DB Plugin V2.1.5
[CTDB TOCID: KWOLdng_G_Xey_MALdrERnDm5dE-] found
Submit result: KWOLdng_G_Xey_MALdrERnDm5dE- has been confirmed
Track | CTDB Status
  1   | (120/133) Accurately ripped
  2   | (121/133) Accurately ripped
  3   | (120/133) Accurately ripped
  4   | (119/133) Accurately ripped
  5   | (120/133) Accurately ripped
  6   | (120/133) Accurately ripped
  7   | (120/133) Accurately ripped
  8   | (120/133) Accurately ripped
  9   | (120/133) Accurately ripped
10   | (  1/133) Accurately ripped, or (110/133) differs in 3 samples @00:31:63-00:31:64,04:35:30
11   | (119/133) Accurately ripped
12   | (118/133) Accurately ripped
13   | (119/133) Accurately ripped
If you are sure that your rip contains errors, you can use CUETools to repair it.
==== Log checksum 9C44912ACD205171B4C0D15039FEA35F55BECA8F4C61E20C19FD08CA99162079 ====

Dynamic Range Meter

foobar2000 1.2.6 / Dynamic Range Meter 1.1.1
log date: 2013-05-26 18:41:03
--------------------------------------------------------------------------------
Analyzed: Whitney Houston / My Love Is Your Love
--------------------------------------------------------------------------------
DR         Peak         RMS     Duration Track
--------------------------------------------------------------------------------
DR8        0.00 dB   -10.47 dB      4:52 01-It's Not Right But It's Okay
DR9        0.00 dB   -11.18 dB      4:41 02-Heartbreak Hotel (Feat. Faith Evans And Kelly Price)
DR8        0.00 dB    -9.14 dB      4:22 03-My Love Is Your Love
DR11       0.00 dB   -13.84 dB      4:33 04-When You Believe (Duet With Mariah Carey)
DR10       0.00 dB   -11.99 dB      4:37 05-If I Told You That
DR10       0.00 dB   -12.12 dB      3:27 06-In My Business (Feat. Missy 'Misdemeanor'' Elliott)
DR8        0.00 dB   -10.30 dB      4:21 07-I Learned From The Best
DR10       0.00 dB   -12.12 dB      6:47 08-Oh Yes
DR8        0.00 dB   -10.29 dB      4:53 09-Get It Back
DR10       0.00 dB   -12.55 dB      4:53 10-Until You Come Back
DR10       0.00 dB   -12.25 dB      4:31 11-I Bow Out
DR9        0.00 dB   -11.57 dB      4:21 12-You'll Never Stand Alone
DR7        0.00 dB    -8.63 dB      4:26 13-I Was Made To Love Him
--------------------------------------------------------------------------------
Number of tracks:  13
Official DR value: DR9
Samplerate:        44100 Hz
Channels:          2
Bits per sample:   16
Bitrate:           930 kbps
Codec:             FLAC
================================================================================

2000 - The Greatest Hits - 78:45 + 77:48 ★ 2000 1st Press ★ BMG FUNHOUSE, Inc./Japan/BVCA-27003~4

Cool Down
01. Saving All My Love For You [0:03:58.22]
02. Greatest Love Of All [0:04:52.03]
03. One Moment In Time [0:04:46.12]
04. I Have Nothing [0:04:52.00]
05. I Will Always Love You [0:04:27.15]
06. Run To You [0:04:27.03]
07. You Give Good Love [0:04:11.22]
08. All At Once [0:04:30.55]
09. Where Do Broken Hearts Go [0:04:37.15]
10. If You Say My Eyes Are Beautiful (duet with Jermaine Jackson) [0:04:20.20]
11. Didn't We Almost Have It All [0:04:37.33]
12. All The Man That I Need [0:03:56.72]
13. Exhale (Shoop Shoop) [0:03:25.15]
14. Count On Me (duet with CeCe Winans) [0:04:27.15]
15. I Believe In You And Me [0:03:55.33]
16. I Learned From The Best [0:04:23.60]
17. Same Script, Different Cast (duet with Deborah Cox) [0:05:00.30]
18. Could I Have This Kiss Forever (duet with Enrique Iglesias) (Metro Mix) [0:03:56.25]

Throw Down
01. If I Told You That (Whitney Houston & George Michael) [0:04:33.32]
02. Fine [0:03:34.65]
03. My Love Is Your Love [0:04:18.55]
04. It's Not Right But It's Okay [0:04:49.55]
05. Heartbreak Hotel [0:04:35.15]
06. Step By Step [0:04:11.70]
07. Queen Of The Night (CJ Mackintosh Mix) [0:03:46.08]
08. I'm Every Woman [0:04:45.02]
09. Love Will Save The Day [0:05:21.43]
10. I'm Your Baby Tonight [0:04:59.05]
11. So Emotional [0:04:32.07]
12. I Wanna Dance With Somebody (Who Loves Me) [0:04:49.35]
13. How Will I Know [0:04:33.20]
14. I Will Always Love You (Hex Hector Mix) [0:04:52.30]
15. Greatest Love Of All (Club 69 Mix) [0:04:43.70]
16. It's Not Right But It's Okay (Thunderpuss Mix) [0:04:16.20]
17. I'm Your Baby Tonight (Dronez Mix) [0:05:05.18]

EAC CD1

Exact Audio Copy V1.0 beta 3 from 29. August 2011
EAC extraction logfile from 25. May 2013, 20:41
Whitney Houston / The Greatest Hits (Cool Down)
Used drive  : PIONEER DVD-RW  DVR-112D   Adapter: 2  ID: 1
Read mode               : Secure
Utilize accurate stream : Yes
Defeat audio cache      : Yes
Make use of C2 pointers : No
Read offset correction                      : 48
Overread into Lead-In and Lead-Out          : No
Fill up missing offset samples with silence : Yes
Delete leading and trailing silent blocks   : No
Null samples used in CRC calculations       : Yes
Used interface                              : Installed external ASPI interface
Used output format              : User Defined Encoder
Selected bitrate                : 1024 kBit/s
Quality                         : High
Add ID3 tag                     : No
Command line compressor         : C:\Program Files (x86)\Exact Audio Copy\Flac\flac.exe
Additional command line options : -8 -V -T "Date=%year%" -T "Genre=%genre%" -T "COMMENT=ripped by bvstudio®" %source%
TOC of the extracted CD
     Track |   Start  |  Length  | Start sector | End sector
    ---------------------------------------------------------
        1  |  0:00.00 |  3:58.22 |         0    |    17871
        2  |  3:58.22 |  4:52.03 |     17872    |    39774
        3  |  8:50.25 |  4:46.12 |     39775    |    61236
        4  | 13:36.37 |  4:52.00 |     61237    |    83136
        5  | 18:28.37 |  4:27.15 |     83137    |   103176
        6  | 22:55.52 |  4:27.03 |    103177    |   123204
        7  | 27:22.55 |  4:11.22 |    123205    |   142051
        8  | 31:34.02 |  4:30.55 |    142052    |   162356
        9  | 36:04.57 |  4:37.15 |    162357    |   183146
       10  | 40:41.72 |  4:20.20 |    183147    |   202666
       11  | 45:02.17 |  4:37.33 |    202667    |   223474
       12  | 49:39.50 |  3:56.72 |    223475    |   241246
       13  | 53:36.47 |  3:25.15 |    241247    |   256636
       14  | 57:01.62 |  4:27.15 |    256637    |   276676
       15  | 61:29.02 |  3:55.33 |    276677    |   294334
       16  | 65:24.35 |  4:23.60 |    294335    |   314119
       17  | 69:48.20 |  5:00.30 |    314120    |   336649
       18  | 74:48.50 |  3:56.25 |    336650    |   354374
Range status and errors
Selected range
     Filename F:\Whitney Houston\2000 - The Greatest Hits (2000 - BVCA-27003-4)\Disc 1 • Cool Down\Whitney Houston - The Greatest Hits (Cool Down).wav
     Peak level 98.8 %
     Extraction speed 8.2 X
     Range quality 99.9 %
     Test CRC DD0DA3FC
     Copy CRC DD0DA3FC
     Copy OK
No errors occurred
AccurateRip summary
Track  1  accurately ripped (confidence 5)  [6B58A671]  (AR v1)
Track  2  accurately ripped (confidence 5)  [39DEA521]  (AR v1)
Track  3  accurately ripped (confidence 5)  [3C5EC1E6]  (AR v1)
Track  4  accurately ripped (confidence 5)  [BF9A34AD]  (AR v1)
Track  5  accurately ripped (confidence 5)  [B131A48F]  (AR v1)
Track  6  accurately ripped (confidence 4)  [24E5B0A7]  (AR v1)
Track  7  accurately ripped (confidence 4)  [9C2E2A1D]  (AR v1)
Track  8  accurately ripped (confidence 4)  [7C5361CF]  (AR v1)
Track  9  accurately ripped (confidence 4)  [C3CF831F]  (AR v1)
Track 10  accurately ripped (confidence 4)  [358924B5]  (AR v1)
Track 11  accurately ripped (confidence 4)  [794DA47A]  (AR v1)
Track 12  accurately ripped (confidence 4)  [EDC012FA]  (AR v1)
Track 13  accurately ripped (confidence 4)  [357E3B6C]  (AR v1)
Track 14  accurately ripped (confidence 4)  [727F6E92]  (AR v1)
Track 15  accurately ripped (confidence 4)  [9E7BB9F4]  (AR v1)
Track 16  accurately ripped (confidence 4)  [A51B3B7C]  (AR v1)
Track 17  accurately ripped (confidence 5)  [194B06E7]  (AR v1)
Track 18  accurately ripped (confidence 5)  [B07A04BA]  (AR v1)
All tracks accurately ripped
End of status report
---- CUETools DB Plugin V2.1.5
[CTDB TOCID: BJK2_ztUoU9POQTQEHO0Jk_XDlc-] found
Submit result: BJK2_ztUoU9POQTQEHO0Jk_XDlc- has been confirmed
Track | CTDB Status
  1   | (18/18) Accurately ripped
  2   | (18/18) Accurately ripped
  3   | (16/18) Accurately ripped, or (1/18) differs in 10 samples @04:30:60,04:30:73-04:30:74, or (1/18) differs in 8 samples @04:30:73-04:30:74
  4   | (18/18) Accurately ripped
  5   | (18/18) Accurately ripped
  6   | (18/18) Accurately ripped
  7   | (18/18) Accurately ripped
  8   | (18/18) Accurately ripped
  9   | (18/18) Accurately ripped
10   | (18/18) Accurately ripped
11   | (18/18) Accurately ripped
12   | (18/18) Accurately ripped
13   | (17/18) Accurately ripped
14   | (18/18) Accurately ripped
15   | (18/18) Accurately ripped
16   | (18/18) Accurately ripped
17   | (16/18) Accurately ripped
18   | (18/18) Accurately ripped
==== Log checksum 1A9CA1B25C39428E1B6926B33992D198C6C12983284BFBAAAE4B1E8214AE7A7E ====

Dynamic Range Meter CD1

foobar2000 1.2.6 / Dynamic Range Meter 1.1.1
log date: 2013-05-26 18:41:49
--------------------------------------------------------------------------------
Analyzed: Whitney Houston / The Greatest Hits (Cool Down)
--------------------------------------------------------------------------------
DR         Peak         RMS     Duration Track
--------------------------------------------------------------------------------
DR9       -0.10 dB   -12.18 dB      3:58 01-Saving All My Love For You
DR9       -0.10 dB   -11.65 dB      4:52 02-Greatest Love Of All
DR8       -0.20 dB   -11.14 dB      4:46 03-One Moment In Time
DR9       -0.10 dB   -12.34 dB      4:52 04-I Have Nothing
DR8       -0.10 dB   -13.10 dB      4:27 05-I Will Always Love You
DR8       -0.10 dB   -11.47 dB      4:27 06-Run To You
DR6       -1.10 dB   -10.27 dB      4:11 07-You Give Good Love
DR8       -0.10 dB   -11.30 dB      4:31 08-All At Once
DR8       -0.10 dB   -11.26 dB      4:37 09-Where Do Broken Hearts Go
DR7       -0.10 dB    -9.96 dB      4:20 10-If You Say My Eyes Are Beautiful (duet with Jermaine Jackson)
DR7       -1.30 dB   -10.19 dB      4:37 11-Didn't We Almost Have It All
DR9       -0.10 dB   -11.94 dB      3:57 12-All The Man That I Need
DR7       -1.80 dB   -11.06 dB      3:25 13-Exhale (Shoop Shoop)
DR9       -0.10 dB   -10.94 dB      4:27 14-Count On Me (duet with CeCe Winans)
DR7       -0.10 dB   -10.93 dB      3:55 15-I Believe In You And Me
DR8       -0.10 dB   -10.45 dB      4:24 16-I Learned From The Best
DR8       -0.10 dB   -10.84 dB      5:00 17-Same Script, Different Cast (duet with Deborah Cox)
DR6       -2.40 dB    -9.57 dB      3:56 18-Could I Have This Kiss Forever (duet with Enrique Iglesias) (Metro Mix)
--------------------------------------------------------------------------------
Number of tracks:  18
Official DR value: DR8
Samplerate:        44100 Hz
Channels:          2
Bits per sample:   16
Bitrate:           917 kbps
Codec:             FLAC
================================================================================

EAC CD2

Exact Audio Copy V1.0 beta 3 from 29. August 2011
EAC extraction logfile from 25. May 2013, 21:07
Whitney Houston / The Greatest Hits (Throw Down)
Used drive  : PIONEER DVD-RW  DVR-112D   Adapter: 2  ID: 1
Read mode               : Secure
Utilize accurate stream : Yes
Defeat audio cache      : Yes
Make use of C2 pointers : No
Read offset correction                      : 48
Overread into Lead-In and Lead-Out          : No
Fill up missing offset samples with silence : Yes
Delete leading and trailing silent blocks   : No
Null samples used in CRC calculations       : Yes
Used interface                              : Installed external ASPI interface
Used output format              : User Defined Encoder
Selected bitrate                : 1024 kBit/s
Quality                         : High
Add ID3 tag                     : No
Command line compressor         : C:\Program Files (x86)\Exact Audio Copy\Flac\flac.exe
Additional command line options : -8 -V -T "Date=%year%" -T "Genre=%genre%" -T "COMMENT=ripped by bvstudio®" %source%
TOC of the extracted CD
     Track |   Start  |  Length  | Start sector | End sector
    ---------------------------------------------------------
        1  |  0:00.00 |  4:33.32 |         0    |    20506
        2  |  4:33.32 |  3:34.65 |     20507    |    36621
        3  |  8:08.22 |  4:18.55 |     36622    |    56026
        4  | 12:27.02 |  4:49.55 |     56027    |    77756
        5  | 17:16.57 |  4:35.15 |     77757    |    98396
        6  | 21:51.72 |  4:11.70 |     98397    |   117291
        7  | 26:03.67 |  3:46.08 |    117292    |   134249
        8  | 29:50.00 |  4:45.02 |    134250    |   155626
        9  | 34:35.02 |  5:21.43 |    155627    |   179744
       10  | 39:56.45 |  4:59.05 |    179745    |   202174
       11  | 44:55.50 |  4:32.07 |    202175    |   222581
       12  | 49:27.57 |  4:49.35 |    222582    |   244291
       13  | 54:17.17 |  4:33.20 |    244292    |   264786
       14  | 58:50.37 |  4:52.30 |    264787    |   286716
       15  | 63:42.67 |  4:43.70 |    286717    |   308011
       16  | 68:26.62 |  4:16.20 |    308012    |   327231
       17  | 72:43.07 |  5:05.18 |    327232    |   350124
Range status and errors
Selected range
     Filename F:\Whitney Houston\2000 - The Greatest Hits (2000 - BVCA-27003-4)\Disc 2 • Throw Down\Whitney Houston - The Greatest Hits (Throw Down).wav
     Peak level 100.0 %
     Extraction speed 8.2 X
     Range quality 100.0 %
     Test CRC 90FAF8F4
     Copy CRC 90FAF8F4
     Copy OK
No errors occurred
AccurateRip summary
Track  1  accurately ripped (confidence 4)  [AB20933C]  (AR v1)
Track  2  accurately ripped (confidence 3)  [A5C5ABCE]  (AR v1)
Track  3  accurately ripped (confidence 3)  [2BEB5CE3]  (AR v1)
Track  4  accurately ripped (confidence 3)  [31FA561A]  (AR v1)
Track  5  accurately ripped (confidence 3)  [66A9C3DA]  (AR v1)
Track  6  accurately ripped (confidence 4)  [629A29FF]  (AR v1)
Track  7  accurately ripped (confidence 4)  [F9AE0D88]  (AR v1)
Track  8  accurately ripped (confidence 3)  [5142301B]  (AR v1)
Track  9  accurately ripped (confidence 3)  [31E9F5D2]  (AR v1)
Track 10  accurately ripped (confidence 3)  [BCAFEF94]  (AR v1)
Track 11  accurately ripped (confidence 3)  [2AD31AE2]  (AR v1)
Track 12  accurately ripped (confidence 4)  [7375DDAE]  (AR v1)
Track 13  accurately ripped (confidence 3)  [06ADF121]  (AR v1)
Track 14  accurately ripped (confidence 3)  [EDE10809]  (AR v1)
Track 15  accurately ripped (confidence 4)  [B2493A70]  (AR v1)
Track 16  accurately ripped (confidence 3)  [4A139221]  (AR v1)
Track 17  accurately ripped (confidence 2)  [C9A4D401]  (AR v1)
All tracks accurately ripped
End of status report
---- CUETools DB Plugin V2.1.5
[CTDB TOCID: HgOprCIVzU0vH3TCEQH9sMJYUQE-] found
Submit result: HgOprCIVzU0vH3TCEQH9sMJYUQE- has been confirmed
Track | CTDB Status
  1   | (14/14) Accurately ripped
  2   | (14/14) Accurately ripped
  3   | (14/14) Accurately ripped
  4   | (13/14) Accurately ripped
  5   | (14/14) Accurately ripped
  6   | (13/14) Accurately ripped
  7   | (14/14) Accurately ripped
  8   | (13/14) Accurately ripped
  9   | (14/14) Accurately ripped
10   | (13/14) Accurately ripped
11   | (12/14) Accurately ripped
12   | (13/14) Accurately ripped
13   | (13/14) Accurately ripped
14   | (13/14) Accurately ripped
15   | (13/14) Accurately ripped
16   | (14/14) Accurately ripped
17   | (13/14) Accurately ripped
==== Log checksum EA10980042D8D318828F0A2952D813EB0BDD3DBB5FCBFEA33B00F0BF9BA9233C ====

Dynamic Range Meter CD2

foobar2000 1.2.6 / Dynamic Range Meter 1.1.1
log date: 2013-05-26 18:42:32
--------------------------------------------------------------------------------
Analyzed: Whitney Houston / The Greatest Hits (Throw Down)
--------------------------------------------------------------------------------
DR         Peak         RMS     Duration Track
--------------------------------------------------------------------------------
DR7        0.00 dB    -8.19 dB      4:33 01-If I Told You That (Whitney Houston & George Michael)
DR9       -0.10 dB    -9.60 dB      3:35 02-Fine
DR7        0.00 dB    -8.24 dB      4:19 03-My Love Is Your Love
DR8        0.00 dB   -10.42 dB      4:50 04-It's Not Right But It's Okay
DR9        0.00 dB   -11.08 dB      4:35 05-Heartbreak Hotel
DR9        0.00 dB   -10.86 dB      4:12 06-Step By Step
DR7        0.00 dB    -8.69 dB      3:46 07-Queen Of The Night (CJ Mackintosh Mix)
DR9        0.00 dB   -10.33 dB      4:45 08-I'm Every Woman
DR7        0.00 dB    -7.88 dB      5:22 09-Love Will Save The Day
DR7        0.00 dB    -8.66 dB      4:59 10-I'm Your Baby Tonight
DR7        0.00 dB    -8.72 dB      4:32 11-So Emotional
DR8        0.00 dB    -9.46 dB      4:49 12-I Wanna Dance With Somebody (Who Loves Me)
DR7        0.00 dB    -9.38 dB      4:33 13-How Will I Know
DR7       -0.10 dB   -10.70 dB      4:52 14-I Will Always Love You (Hex Hector Mix)
DR8        0.00 dB   -10.02 dB      4:44 15-Greatest Love Of All (Club 69 Mix)
DR7        0.00 dB    -7.62 dB      4:16 16-It's Not Right But It's Okay (Thunderpuss Mix)
DR7       -0.10 dB    -9.45 dB      5:05 17-I'm Your Baby Tonight (Dronez Mix)
--------------------------------------------------------------------------------
Number of tracks:  17
Official DR value: DR8
Samplerate:        44100 Hz
Channels:          2
Bits per sample:   16
Bitrate:           1001 kbps
Codec:             FLAC
================================================================================

2001 - Love, Whitney (Special Limited Edition) - 73:26 ★ 2001 1st Press ★ Arista Records, Inc./Germany/74321 91027 2/4

01. Until You Come Back [0:04:55.47]
02. I Have Nothing [0:04:50.73]
03. Why Does It Hurt So Bad [0:04:39.62]
04. You Give Good Love [0:04:12.28]
05. All The Man That I Need [0:03:57.40]
06. Where Do Broken Hearts Go [0:04:38.05]
07. Just The Lonely Talking Again [0:05:33.15]
08. Exhale (Shoop Shoop) [0:03:24.60]
09. Miracle [0:05:46.60]
10. For The Love Of You [0:05:35.40]
11. Saving All My Love For You [0:03:56.65]
12. Run To You [0:04:27.45]
13. I Believe In You And Me [0:03:55.27]
14. Didn't We Almost Have It All [0:04:38.70]
15. All At Once [0:04:29.15]
16. I Will Always Love You [0:04:23.60]

EAC

Exact Audio Copy V1.0 beta 3 from 29. August 2011
EAC extraction logfile from 30. May 2013, 1:08
Whitney Houston / Love, Whitney
Used drive  : PIONEER DVD-RW  DVR-112D   Adapter: 2  ID: 1
Read mode               : Secure
Utilize accurate stream : Yes
Defeat audio cache      : Yes
Make use of C2 pointers : No
Read offset correction                      : 48
Overread into Lead-In and Lead-Out          : No
Fill up missing offset samples with silence : Yes
Delete leading and trailing silent blocks   : No
Null samples used in CRC calculations       : Yes
Used interface                              : Installed external ASPI interface
Used output format              : User Defined Encoder
Selected bitrate                : 1024 kBit/s
Quality                         : High
Add ID3 tag                     : No
Command line compressor         : C:\Program Files (x86)\Exact Audio Copy\Flac\flac.exe
Additional command line options : -8 -V -T "Date=%year%" -T "Genre=%genre%" -T "COMMENT=ripped by bvstudio®" %source%
TOC of the extracted CD
     Track |   Start  |  Length  | Start sector | End sector
    ---------------------------------------------------------
        1  |  0:00.00 |  4:55.47 |         0    |    22171
        2  |  4:55.47 |  4:50.73 |     22172    |    43994
        3  |  9:46.45 |  4:39.62 |     43995    |    64981
        4  | 14:26.32 |  4:12.28 |     64982    |    83909
        5  | 18:38.60 |  3:57.40 |     83910    |   101724
        6  | 22:36.25 |  4:38.05 |    101725    |   122579
        7  | 27:14.30 |  5:33.15 |    122580    |   147569
        8  | 32:47.45 |  3:24.60 |    147570    |   162929
        9  | 36:12.30 |  5:46.60 |    162930    |   188939
       10  | 41:59.15 |  5:35.40 |    188940    |   214104
       11  | 47:34.55 |  3:56.65 |    214105    |   231869
       12  | 51:31.45 |  4:27.45 |    231870    |   251939
       13  | 55:59.15 |  3:55.27 |    251940    |   269591
       14  | 59:54.42 |  4:38.70 |    269592    |   290511
       15  | 64:33.37 |  4:29.15 |    290512    |   310701
       16  | 69:02.52 |  4:23.60 |    310702    |   330486
Range status and errors
Selected range
     Filename F:\Whitney Houston\2001 - Love, Whitney (2001 - Germany - 74321 91027 2)\Whitney Houston - Love, Whitney.wav
     Peak level 98.8 %
     Extraction speed 8.1 X
     Range quality 100.0 %
     Test CRC 75345CFC
     Copy CRC 75345CFC
     Copy OK
No errors occurred
AccurateRip summary
Track  1  accurately ripped (confidence 5)  [480BB341]  (AR v2)
Track  2  accurately ripped (confidence 4)  [D239899C]  (AR v2)
Track  3  accurately ripped (confidence 4)  [A1AB26B2]  (AR v2)
Track  4  accurately ripped (confidence 5)  [72A304D5]  (AR v2)
Track  5  accurately ripped (confidence 5)  [5230119A]  (AR v2)
Track  6  accurately ripped (confidence 5)  [52044C18]  (AR v2)
Track  7  accurately ripped (confidence 4)  [FB47F758]  (AR v2)
Track  8  accurately ripped (confidence 5)  [197E5096]  (AR v2)
Track  9  accurately ripped (confidence 4)  [F26AF0CC]  (AR v2)
Track 10  accurately ripped (confidence 5)  [3D4797FE]  (AR v2)
Track 11  accurately ripped (confidence 5)  [C99BF2DA]  (AR v2)
Track 12  accurately ripped (confidence 5)  [BAB03E7B]  (AR v2)
Track 13  accurately ripped (confidence 5)  [CBAC226D]  (AR v2)
Track 14  accurately ripped (confidence 5)  [0EB5075A]  (AR v2)
Track 15  accurately ripped (confidence 5)  [A0BFA6E5]  (AR v2)
Track 16  accurately ripped (confidence 5)  [3B2D99C1]  (AR v2)
All tracks accurately ripped
End of status report
---- CUETools DB Plugin V2.1.5
[CTDB TOCID: 9aoSxZHxgP9K9oF0nmuJwVdIcT8-] found
Submit result: 9aoSxZHxgP9K9oF0nmuJwVdIcT8- has been confirmed
Track | CTDB Status
  1   | (21/21) Accurately ripped
  2   | (21/21) Accurately ripped
  3   | (21/21) Accurately ripped
  4   | (20/21) Accurately ripped
  5   | (21/21) Accurately ripped
  6   | (21/21) Accurately ripped
  7   | (21/21) Accurately ripped
  8   | (21/21) Accurately ripped
  9   | (21/21) Accurately ripped
10   | (21/21) Accurately ripped
11   | (21/21) Accurately ripped
12   | (20/21) Accurately ripped
13   | (20/21) Accurately ripped
14   | (21/21) Accurately ripped
15   | (21/21) Accurately ripped
16   | (19/21) Accurately ripped
==== Log checksum 6807B633BCF25A1C1DCFC6632FD8DC65283F0A5D2437BC5B458FAA07393BB0F8 ====

Dynamic Range Meter

foobar2000 1.2.6 / Dynamic Range Meter 1.1.1
log date: 2013-05-30 01:25:09
--------------------------------------------------------------------------------
Analyzed: Whitney Houston / Love, Whitney
--------------------------------------------------------------------------------
DR         Peak         RMS     Duration Track
--------------------------------------------------------------------------------
DR8       -0.10 dB   -10.46 dB      4:56 01-Until You Come Back
DR8       -0.10 dB   -10.91 dB      4:51 02-I Have Nothing
DR9       -0.10 dB   -11.02 dB      4:40 03-Why Does It Hurt So Bad
DR7       -0.10 dB    -9.42 dB      4:12 04-You Give Good Love
DR8       -0.10 dB   -10.15 dB      3:58 05-All The Man That I Need
DR8       -0.10 dB   -10.52 dB      4:38 06-Where Do Broken Hearts Go
DR8       -0.10 dB   -10.08 dB      5:33 07-Just The Lonely Talking Again
DR7       -1.00 dB   -10.26 dB      3:25 08-Exhale (Shoop Shoop)
DR8       -0.10 dB    -9.82 dB      5:47 09-Miracle
DR8       -0.10 dB    -9.98 dB      5:36 10-For The Love Of You
DR8       -0.10 dB   -10.88 dB      3:57 11-Saving All My Love For You
DR8       -0.10 dB   -10.95 dB      4:28 12-Run To You
DR7       -0.10 dB   -10.83 dB      3:55 13-I Believe In You And Me
DR7       -0.10 dB    -9.50 dB      4:39 14-Didn't We Almost Have It All
DR8       -0.10 dB   -10.65 dB      4:29 15-All At Once
DR8       -0.10 dB   -12.53 dB      4:24 16-I Will Always Love You
--------------------------------------------------------------------------------
Number of tracks:  16
Official DR value: DR8
Samplerate:        44100 Hz
Channels:          2
Bits per sample:   16
Bitrate:           929 kbps
Codec:             FLAC
================================================================================

2002 - Just Whitney - 43:21 ★ 2002 1st Press ★ BMG FUNHOUSE, Inc./Japan/BVCA-24006

01. Whatchulookinat? [0:03:34.55]
02. Tell Me No [0:03:44.42]
03. One Of Those Days [0:04:13.23]
04. Things You Say [0:04:09.52]
05. My Love (feat. Bobby Brown) [0:03:27.55]
06. Love That Man [0:03:27.58]
07. On My Own [0:04:40.35]
08. Dear John Letter [0:04:34.05]
09. Unashamed [0:03:38.05]
10. You Light Up My Life [0:03:42.52]
11. Whatchulookinat? (P. Diddy Remix) (feat. P. Diddy) [0:04:07.68]

EAC

Exact Audio Copy V1.0 beta 3 from 29. August 2011
EAC extraction logfile from 25. May 2013, 21:28
Whitney Houston / Just Whitney...
Used drive  : PIONEER DVD-RW  DVR-112D   Adapter: 2  ID: 1
Read mode               : Secure
Utilize accurate stream : Yes
Defeat audio cache      : Yes
Make use of C2 pointers : No
Read offset correction                      : 48
Overread into Lead-In and Lead-Out          : No
Fill up missing offset samples with silence : Yes
Delete leading and trailing silent blocks   : No
Null samples used in CRC calculations       : Yes
Used interface                              : Installed external ASPI interface
Used output format              : User Defined Encoder
Selected bitrate                : 1024 kBit/s
Quality                         : High
Add ID3 tag                     : No
Command line compressor         : C:\Program Files (x86)\Exact Audio Copy\Flac\flac.exe
Additional command line options : -8 -V -T "Date=%year%" -T "Genre=%genre%" -T "COMMENT=ripped by bvstudio®" %source%
TOC of the extracted CD
     Track |   Start  |  Length  | Start sector | End sector
    ---------------------------------------------------------
        1  |  0:00.00 |  3:34.55 |         0    |    16104
        2  |  3:34.55 |  3:44.42 |     16105    |    32946
        3  |  7:19.22 |  4:13.23 |     32947    |    51944
        4  | 11:32.45 |  4:09.52 |     51945    |    70671
        5  | 15:42.22 |  3:27.55 |     70672    |    86251
        6  | 19:10.02 |  3:27.58 |     86252    |   101834
        7  | 22:37.60 |  4:40.35 |    101835    |   122869
        8  | 27:18.20 |  4:34.05 |    122870    |   143424
        9  | 31:52.25 |  3:38.05 |    143425    |   159779
       10  | 35:30.30 |  3:42.52 |    159780    |   176481
       11  | 39:13.07 |  4:07.68 |    176482    |   195074
Range status and errors
Selected range
     Filename F:\Whitney Houston\2002 - Just Whitney (2002 - BVCA-24006)\Whitney Houston - Just Whitney....wav
     Peak level 100.0 %
     Extraction speed 6.6 X
     Range quality 100.0 %
     Test CRC 85CCE45C
     Copy CRC 85CCE45C
     Copy OK
No errors occurred
AccurateRip summary
Track  1  accurately ripped (confidence 2)  [F15C1537]  (AR v1)
Track  2  accurately ripped (confidence 2)  [8E7BF79A]  (AR v1)
Track  3  accurately ripped (confidence 2)  [68664B40]  (AR v1)
Track  4  accurately ripped (confidence 2)  [B05C5ECC]  (AR v1)
Track  5  accurately ripped (confidence 2)  [B5EFE170]  (AR v1)
Track  6  accurately ripped (confidence 2)  [9526DF80]  (AR v1)
Track  7  accurately ripped (confidence 2)  [D5B35B7A]  (AR v1)
Track  8  accurately ripped (confidence 2)  [3C6D6917]  (AR v1)
Track  9  accurately ripped (confidence 2)  [926E6236]  (AR v1)
Track 10  accurately ripped (confidence 2)  [893934EC]  (AR v1)
Track 11  accurately ripped (confidence 2)  [F9243763]  (AR v1)
All tracks accurately ripped
End of status report
---- CUETools DB Plugin V2.1.5
[CTDB TOCID: GUjUNV7E4J3Bybils8DvoS_ZIC8-] found
Submit result: GUjUNV7E4J3Bybils8DvoS_ZIC8- has been confirmed
Track | CTDB Status
  1   | (1/3) Accurately ripped
  2   | (1/3) Accurately ripped
  3   | (1/3) Accurately ripped
  4   | (1/3) Accurately ripped
  5   | (1/3) Accurately ripped
  6   | (1/3) Accurately ripped
  7   | (1/3) Accurately ripped
  8   | (1/3) Accurately ripped
  9   | (1/3) Accurately ripped
10   | (1/3) Accurately ripped
11   | (1/3) Accurately ripped
==== Log checksum 14C746E192F7237B5C1056AC6BE70BE4EFCBF765A5248C657A6BF4F539A2D077 ====

Dynamic Range Meter

foobar2000 1.2.6 / Dynamic Range Meter 1.1.1
log date: 2013-05-26 18:43:29
--------------------------------------------------------------------------------
Analyzed: Whitney Houston / Just Whitney...
--------------------------------------------------------------------------------
DR         Peak         RMS     Duration Track
--------------------------------------------------------------------------------
DR7        0.00 dB    -8.00 dB      3:35 01-Whatchulookinat?
DR6        0.00 dB    -8.40 dB      3:45 02-Tell Me No
DR7        0.00 dB    -9.10 dB      4:13 03-One Of Those Days
DR9        0.00 dB   -10.30 dB      4:10 04-Things You Say
DR8        0.00 dB    -9.24 dB      3:28 05-My Love (feat. Bobby Brown)
DR7        0.00 dB    -8.45 dB      3:28 06-Love That Man
DR8        0.00 dB   -11.18 dB      4:40 07-On My Own
DR7        0.00 dB    -8.37 dB      4:34 08-Dear John Letter
DR7        0.00 dB    -8.36 dB      3:38 09-Unashamed
DR7        0.00 dB   -10.76 dB      3:43 10-You Light Up My Life
DR5       -0.08 dB    -6.69 dB      4:08 11-Whatchulookinat? (P. Diddy Remix) (feat. P. Diddy)
--------------------------------------------------------------------------------
Number of tracks:  11
Official DR value: DR7
Samplerate:        44100 Hz
Channels:          2
Bits per sample:   16
Bitrate:           988 kbps
Codec:             FLAC
================================================================================

2009 - I Look To You - 47:58 ★ 2009 1st Press ★ BMG Japan, Inc./Japan/BVCP-40096

01. Million Dollar Bill [0:03:24.20]
02. Nothin' But Love [0:03:36.23]
03. Call You Tonight [0:04:10.05]
04. I Look To You [0:04:27.25]
05. Like I Never Left (feat. Akon) [0:03:51.35]
06. A Song For You [0:04:12.60]
07. I Didn't Know My Own Strength [0:03:41.66]
08. Worth It [0:04:40.68]
09. For The Lovers [0:04:14.63]
10. I Got You [0:04:13.68]
11. Salute [0:04:13.23]
12. I Didn't Know My Own Strength (Daddy's Groove Magic Island Radio Mix) [0:03:11.08]

EAC

Exact Audio Copy V1.0 beta 3 from 29. August 2011
EAC extraction logfile from 25. May 2013, 21:49
Whitney Houston / I Look To You
Used drive  : PIONEER DVD-RW  DVR-112D   Adapter: 2  ID: 1
Read mode               : Secure
Utilize accurate stream : Yes
Defeat audio cache      : Yes
Make use of C2 pointers : No
Read offset correction                      : 48
Overread into Lead-In and Lead-Out          : No
Fill up missing offset samples with silence : Yes
Delete leading and trailing silent blocks   : No
Null samples used in CRC calculations       : Yes
Used interface                              : Installed external ASPI interface
Used output format              : User Defined Encoder
Selected bitrate                : 1024 kBit/s
Quality                         : High
Add ID3 tag                     : No
Command line compressor         : C:\Program Files (x86)\Exact Audio Copy\Flac\flac.exe
Additional command line options : -8 -V -T "Date=%year%" -T "Genre=%genre%" -T "COMMENT=ripped by bvstudio®" %source%
TOC of the extracted CD
     Track |   Start  |  Length  | Start sector | End sector
    ---------------------------------------------------------
        1  |  0:00.00 |  3:24.20 |         0    |    15319
        2  |  3:24.20 |  3:36.23 |     15320    |    31542
        3  |  7:00.43 |  4:10.05 |     31543    |    50297
        4  | 11:10.48 |  4:27.25 |     50298    |    70347
        5  | 15:37.73 |  3:51.35 |     70348    |    87707
        6  | 19:29.33 |  4:12.60 |     87708    |   106667
        7  | 23:42.18 |  3:41.66 |    106668    |   123308
        8  | 27:24.09 |  4:40.68 |    123309    |   144376
        9  | 32:05.02 |  4:14.63 |    144377    |   163489
       10  | 36:19.65 |  4:13.68 |    163490    |   182532
       11  | 40:33.58 |  4:13.23 |    182533    |   201530
       12  | 44:47.06 |  3:11.08 |    201531    |   215863
Range status and errors
Selected range
     Filename F:\Whitney Houston\2009 - I Look To You (2009 - BVCP-40096)\Whitney Houston - I Look To You.wav
     Peak level 100.0 %
     Extraction speed 6.9 X
     Range quality 100.0 %
     Test CRC 26149851
     Copy CRC 26149851
     Copy OK
No errors occurred
AccurateRip summary
Track  1  accurately ripped (confidence 2)  [51F44832]  (AR v1)
Track  2  accurately ripped (confidence 2)  [A13BE4DA]  (AR v1)
Track  3  accurately ripped (confidence 2)  [CF198ACD]  (AR v1)
Track  4  not present in database
Track  5  accurately ripped (confidence 2)  [45EAAE09]  (AR v1)
Track  6  accurately ripped (confidence 2)  [87061D3E]  (AR v1)
Track  7  accurately ripped (confidence 2)  [679BE943]  (AR v1)
Track  8  accurately ripped (confidence 2)  [69CFB375]  (AR v1)
Track  9  accurately ripped (confidence 2)  [4A874786]  (AR v1)
Track 10  accurately ripped (confidence 2)  [45F4A4E4]  (AR v1)
Track 11  accurately ripped (confidence 2)  [B805A6C9]  (AR v1)
Track 12  not present in database
10 track(s) accurately ripped
2 track(s) not present in the AccurateRip database
Some tracks could not be verified as accurate
End of status report
---- CUETools DB Plugin V2.1.5
[CTDB TOCID: hTtQLri_QGRfFUp8Y.KsKJ6Iah0-] found
Submit result: hTtQLri_QGRfFUp8Y.KsKJ6Iah0- has been confirmed
Track | CTDB Status
  1   | (1/1) Accurately ripped
  2   | (1/1) Accurately ripped
  3   | (1/1) Accurately ripped
  4   | (1/1) Accurately ripped
  5   | (1/1) Accurately ripped
  6   | (1/1) Accurately ripped
  7   | (1/1) Accurately ripped
  8   | (1/1) Accurately ripped
  9   | (1/1) Accurately ripped
10   | (1/1) Accurately ripped
11   | (1/1) Accurately ripped
12   | (1/1) Accurately ripped
==== Log checksum 8BB2D581D4CAEEF2CD98D2E6CE236FEFC57264BF88BBA3A2950EB019697FE158 ====

Dynamic Range Meter

foobar2000 1.2.6 / Dynamic Range Meter 1.1.1
log date: 2013-05-26 18:44:07
--------------------------------------------------------------------------------
Analyzed: Whitney Houston / I Look To You
--------------------------------------------------------------------------------
DR         Peak         RMS     Duration Track
--------------------------------------------------------------------------------
DR6       -0.01 dB    -7.29 dB      3:24 01-Million Dollar Bill
DR6       -0.01 dB    -7.69 dB      3:36 02-Nothin' But Love
DR6        0.00 dB    -6.83 dB      4:10 03-Call You Tonight
DR7        0.00 dB    -9.86 dB      4:27 04-I Look To You
DR6       -0.30 dB    -7.55 dB      3:51 05-Like I Never Left (feat. Akon)
DR6       -0.01 dB    -8.51 dB      4:13 06-A Song For You
DR8       -0.01 dB   -11.57 dB      3:42 07-I Didn't Know My Own Strength
DR6       -0.01 dB    -7.62 dB      4:41 08-Worth It
DR6       -0.01 dB    -7.77 dB      4:15 09-For The Lovers
DR6       -0.18 dB    -8.67 dB      4:14 10-I Got You
DR8       -0.01 dB   -10.32 dB      4:13 11-Salute
DR4       -0.01 dB    -6.00 dB      3:11 12-I Didn't Know My Own Strength (Daddy's Groove Magic Island Radio Mix)
--------------------------------------------------------------------------------
Number of tracks:  12
Official DR value: DR6
Samplerate:        44100 Hz
Channels:          2
Bits per sample:   16
Bitrate:           946 kbps
Codec:             FLAC
================================================================================
--
[Профиль] [ЛС]

Создавать темы 13-Авг-2015 11:42 (спустя 9 месяцев 11 дней)

Топик был перенесен из форума Дискографии (Зарубежные) в форум Rap, Hip-Hop, R'n'B
sergej644
 
Кто просматривает тему:

Показать сообщения:    

Текущее время: Сегодня 12:09

Часовой пояс: GMT



Вы не можете начинать темы
Вы не можете отвечать на сообщения
Вы не можете редактировать свои сообщения
Вы не можете удалять свои сообщения
Вы не можете голосовать в опросах
Вы не можете прикреплять файлы к сообщениям
Вы не можете скачивать файлы