(Blues Rock) Point Blank - Volume 9 - 2014, FLAC (image + .cue), lossless

 
Автор Сообщение

sergej644 ®

Пол:

Стаж: 4 года 11 месяцев

Сообщений: 6042

Откуда: Soviet Union



Награды: Нет

Торрент-статистика

Создавать темы 20-Авг-2014 05:22

[Цитировать]

--Point Blank - Volume 9
Страна: USA
Жанр: Blues Rock
Год выпуска: 2014
Формат: FLAC (image + .cue)
Битрейт аудио: lossless
Продолжительность: 00:47:11

CD

01. Blast (01:52)
02. Howlin' Wolf (05:20)
03. Where I Belong (04:09)
04. Automobile (03:24)
05. Lies Like Hell (04:13)
06. Johnny Dallas (04:23)
07. Amigos (04:05)
08. Start The Car (03:58)
09. It Ain't Right (05:16)
10. Heart Of A Fool (05:30)
11. To Be A Man (04:57)

лог создания рипа

Exact Audio Copy V1.0 beta 3 from 29. August 2011
Отчёт EAC об извлечении, выполненном 19. июля 2014, 22:04
Point Blank / Volume 9
Дисковод: ATAPI   iHAS122   E   Adapter: 3  ID: 0
Режим чтения                 : Достоверность
Использование точного потока : Да
Отключение кэша аудио        : Да
Использование указателей C2  : Нет
Коррекция смещения при чтении                     : 6
Способность читать области Lead-in и Lead-out     : Нет
Заполнение пропущенных сэмплов тишиной            : Да
Удаление блоков с тишиной в начале и конце        : Нет
При вычислениях CRC использовались нулевые сэмплы : Да
Интерфейс                                         : Встроенный Win32-интерфейс для Win NT/2000
Выходной формат          : Пользовательский кодировщик
Выбранный битрейт        : 768 kBit/s
Качество                 : Высокий
Добавление ID3-тега      : Нет
Утилита сжатия           : C:\Program Files\Exact Audio Copy\FLAC\FLAC.EXE
Дополнительные параметры : -6 -V -T "ARTIST=%artist%" -T "TITLE=%title%" -T "ALBUM=%albumtitle%" -T "DATE=%year%" -T "TRACKNUMBER=%tracknr%" -T "GENRE=%genre%" -T "COMMENT=%comment%" -T "BAND=%albuminterpret%" -T "ALBUMARTIST=%albuminterpret%" -T "COMPOSER=%composer%" %haslyrics%--tag-from-file=LYRICS="%lyricsfile%"%haslyrics% -T "DISCNUMBER=%cdnumber%" -T "TOTALDISCS=%totalcds%" -T "TOTALTRACKS=%numtracks%" %hascover%--picture="%coverfile%"%hascover% %source% -o %dest%
TOC извлечённого CD
     Трек |   Старт  | Длительность | Начальный сектор | Конечный сектор
    ---------------------------------------------------------------------
       1  |  0:00.00 |    1:52.06   |           0      |       8405
       2  |  1:52.06 |    5:20.08   |        8406      |      32413
       3  |  7:12.14 |    4:09.69   |       32414      |      51157
       4  | 11:22.08 |    3:24.36   |       51158      |      66493
       5  | 14:46.44 |    4:13.15   |       66494      |      85483
       6  | 18:59.59 |    4:23.13   |       85484      |     105221
       7  | 23:22.72 |    4:05.42   |      105222      |     123638
       8  | 27:28.39 |    3:58.44   |      123639      |     141532
       9  | 31:27.08 |    5:16.61   |      141533      |     165293
      10  | 36:43.69 |    5:30.26   |      165294      |     190069
      11  | 42:14.20 |    4:57.43   |      190070      |     212387
Характеристики диапазона извлечения и сообщения об ошибках
Выбранный диапазон
     Имя файла C:\Users\Евгений\Desktop\NEW discs\Point Blank - Volume 9 - 2014 - 47'13''\Point Blank - Volume 9.wav
     Пиковый уровень 98.8 %
     Скорость извлечения 3.3 X
     Качество диапазона 100.0 %
     CRC теста 8C75884F
     CRC копии 8C75884F
     Копирование... OK
Ошибок не произошло
Конец отчёта
---- CUETools DB Plugin V2.1.3

содержание индексной карты *cue

REM GENRE "Southern Rock"
REM DATE 2014
REM DISCID 8C0B0F0B
REM COMMENT "ExactAudioCopy v1.0b3"
PERFORMER "Point Blank"
TITLE "Volume 9"
FILE "Point Blank - Volume 9.flac" WAVE
  TRACK 01 AUDIO
    TITLE "Blast"
    PERFORMER "Point Blank"
    INDEX 01 00:00:00
  TRACK 02 AUDIO
    TITLE "Howlin' Wolf"
    PERFORMER "Point Blank"
    INDEX 01 01:52:06
  TRACK 03 AUDIO
    TITLE "Where I Belong"
    PERFORMER "Point Blank"
    INDEX 01 07:12:14
  TRACK 04 AUDIO
    TITLE "Automobile"
    PERFORMER "Point Blank"
    INDEX 01 11:22:08
  TRACK 05 AUDIO
    TITLE "Lies Like Hell"
    PERFORMER "Point Blank"
    INDEX 01 14:46:44
  TRACK 06 AUDIO
    TITLE "Johnny Dallas"
    PERFORMER "Point Blank"
    INDEX 01 18:59:59
  TRACK 07 AUDIO
    TITLE "Amigos"
    PERFORMER "Point Blank"
    INDEX 01 23:22:72
  TRACK 08 AUDIO
    TITLE "Start The Car"
    PERFORMER "Point Blank"
    INDEX 01 27:28:39
  TRACK 09 AUDIO
    TITLE "It Ain't Right"
    PERFORMER "Point Blank"
    INDEX 01 31:27:08
  TRACK 10 AUDIO
    TITLE "Heart Of A Fool"
    PERFORMER "Point Blank"
    INDEX 01 36:43:69
  TRACK 11 AUDIO
    TITLE "To Be A Man"
    PERFORMER "Point Blank"
    INDEX 01 42:14:20
[Профиль] [ЛС]
Показать сообщения:    

Текущее время: Сегодня 16:22

Часовой пояс: GMT



Вы не можете начинать темы
Вы не можете отвечать на сообщения
Вы не можете редактировать свои сообщения
Вы не можете удалять свои сообщения
Вы не можете голосовать в опросах
Вы не можете прикреплять файлы к сообщениям
Вы не можете скачивать файлы