Pocлeдняя сказка Riты (Reнaтa Lитvинova) [2012, Россия, фэнтези, драма, детектив, DVD9] R5 Sub Eng + Original Rus

 
Автор Сообщение

TorrentFilm ®

Пол:

Стаж: 2 года

Сообщений: 7741



Награды: Нет

Торрент-статистика

Создавать темы 01-Янв-2016 00:10

[Цитировать]

-Последняя сказка Риты -Страна: Россия
Студия: Запределье
Жанр: фэнтези, драма, детектив
Год выпуска: 2012
Мировая премьера: 1 ноября 2012
Российская премьера: 18 октября 2012, «Вольга»
Дата выхода DVD: 24 декабря 2012, «Новый Диск»
Продолжительность: 01:37:12
Перевод: Оригинал [Лицензия]
Cубтитры: английские
Оригинальная аудиодорожка: русский-Режиссер: Рената Литвинова-В ролях: Митя Борисов, Лев Данилкин, Сергей Дебижев, Татьяна Друбич, Альбина Евтушевская, Алиса Хазанова, Николай Хомерики, Ольга Кузина, Рената Литвинова, Сати Спивакова-Описание: Три женщины, три состояния души, три вечные темы: любовь, смерть и поиски счастья. И один ангел смерти, сопровождающий в иной мир души тех, кто способен любить. История, разворачивающаяся на грани реальности и запределья.-Бонусы: нет- -Качество: DVD9 R5
Формат: DVD-Video
Видео кодек: MPEG2
Аудио кодек: AC3 + DTS
Видео: PAL 16:9 (720x576(0.742)) MPEG Video, 25,000 кадр/сек, 7693 Кбит/сек
Аудио #1: Russian (Dolby AC3, 2 ch) 192 Кбит/сек, 48,0 КГц
Аудио #2: Russian (Dolby AC3, 6 ch) 448 Кбит/сек, 48,0 КГц
Аудио #3: Russian (DTS, 6 ch) 768 Кбит/сек, 48,0 КГц--

DVDInfo

Title: Poslednjaja.skazka.Rity.2012.DVD9
Size: 6.13 Gb ( 6 428 850,00 KBytes ) - DVD-9
Enabled regions: 1, 2, 3, 4, 5, 6, 7, 8
VTS_01 :
Play Length: 00:00:08+01:37:04
Video: PAL 16:9 (720x576) VBR, Auto Letterboxed
Audio:
Russian (Dolby AC3, 2 ch)
Russian (Dolby AC3, 6 ch)
Russian (DTS, 6 ch)
Subtitles:
English
* Menus Information *
VIDEO_TS Menu
Video:
NTSC 4:3 (720x480) VBR
Auto Pan&Scan, Auto Letterboxed
Russian Language Unit :
Title Menu
VTS_01 Menu
Video:
PAL 16:9 (720x576) VBR
Auto Letterboxed
Russian Language Unit :
Root Menu
Audio Menu

MediaInfo

Общее
Полное имя : J:\Новинки 2012\Poslednjaja.skazka.Rity.2012.DVD9\VIDEO_TS\VTS_01_1.VOB
Формат : MPEG-PS
Размер файла : 1024 Мбайт
Продолжительность : 15 м.
Режим общего битрейта : Переменный
Общий поток : 9272 Кбит/сек
Видео
Идентификатор : 224 (0xE0)
Формат : MPEG Video
Версия формата : Version 2
Профиль формата : Main@Main
Параметр BVOP формата : Да
Параметр матрицы формата : Выборочная
Параметр GOP формата : M=3, N=15
Продолжительность : 15 м.
Вид битрейта : Переменный
Битрейт : 7693 Кбит/сек
Максимальный битрейт : 8000 Кбит/сек
Ширина : 720 пикселей
Высота : 576 пикселей
Соотношение сторон : 16:9
Частота кадров : 25,000 кадров/сек
Стандарт вещания : PAL
Цветовое пространство : YUV
Субдискретизация насыщенности : 4:2:0
Битовая глубина : 8 бит
Тип развёртки : Прогрессивная
Метод сжатия : С потерями
Бит/(Пиксели*Кадры) : 0.742
Размер потока : 849 Мбайт (83%)
Аудио #1
Идентификатор : 189 (0xBD)-128 (0x80)
Формат : AC-3
Формат/Информация : Audio Coding 3
Расширение режима : CM (complete main)
Параметр Endianness формата : Big
Режим смешивания : DVD-Video
Продолжительность : 15 м.
Вид битрейта : Постоянный
Битрейт : 192 Кбит/сек
Каналы : 2 канала
Расположение каналов : Front: L R
Частота : 48,0 КГц
Битовая глубина : 16 бит
Метод сжатия : С потерями
Задержка видео : -50 мс.
Размер потока : 21,2 Мбайт (2%)
Аудио #2
Идентификатор : 189 (0xBD)-129 (0x81)
Формат : AC-3
Формат/Информация : Audio Coding 3
Расширение режима : CM (complete main)
Параметр Endianness формата : Big
Режим смешивания : DVD-Video
Продолжительность : 15 м.
Вид битрейта : Постоянный
Битрейт : 448 Кбит/сек
Каналы : 6 каналов
Расположение каналов : Front: L C R, Side: L R, LFE
Частота : 48,0 КГц
Битовая глубина : 16 бит
Метод сжатия : С потерями
Задержка видео : -50 мс.
Размер потока : 49,4 Мбайт (5%)
Аудио #3
Идентификатор : 189 (0xBD)-138 (0x8A)
Формат : DTS
Формат/Информация : Digital Theater Systems
Режим : 16
Параметр Endianness формата : Big
Режим смешивания : DVD-Video
Продолжительность : 15 м.
Вид битрейта : Постоянный
Битрейт : 755 Кбит/сек
Каналы : 6 каналов
Расположение каналов : Front: L C R, Side: L R, LFE
Частота : 48,0 КГц
Битовая глубина : 24 бит
Метод сжатия : С потерями
Задержка видео : -50 мс.
Размер потока : 83,3 Мбайт (8%)
Текст
Идентификатор : 189 (0xBD)-32 (0x20)
Формат : RLE
Формат/Информация : Run-length encoding
Режим смешивания : DVD-Video

Скриншоты меню

Скриншоты фильма


-
-Раздача от группы:
[Профиль] [ЛС]
Кто просматривает тему:

Показать сообщения:    

Текущее время: Сегодня 06:05

Часовой пояс: GMT



Вы не можете начинать темы
Вы не можете отвечать на сообщения
Вы не можете редактировать свои сообщения
Вы не можете удалять свои сообщения
Вы не можете голосовать в опросах
Вы не можете прикреплять файлы к сообщениям
Вы не можете скачивать файлы