(Progressive Rock) Planet P Project - 1931 - 2005, FLAC (tracks+.cue), lossless

 
Автор Сообщение

Создавать темы 20-Июл-2014 03:08

Planet P Project / 1931
Жанр: Progressive Rock
Страна-производитель диска: Germany
Год издания: 2005
Издатель (лейбл): ProgRock Records
Страна: Germany
Аудиокодек: FLAC (*.flac)
Тип рипа: tracks+.cue
Битрейт аудио: lossless
Продолжительность: 0:50:59
Источник (релизер): clustert
Наличие сканов в содержимом раздачи: да
Треклист:
01. My Radio Talks To Me [0:06:43.18]
02. Join The Parade [0:04:31.62]
03. Good Little Soldiers [0:05:14.21]
04. Work [0:04:51.40]
05. Judge And The Jury [0:05:04.26]
06. Other Side Of The Mountain [0:05:50.73]
07. Winter [0:04:57.04]
08. Believe It [0:04:06.03]
09. Things They Never Told Me [0:04:37.14]
10. Where Does It Go [0:05:03.03]

Лог создания рипа

Exact Audio Copy V1.0 beta 3 from 29. August 2011
Отчёт EAC об извлечении, выполненном 10. июля 2014, 22:17
Planet P Project / 1931
Дисковод: ASUS DRW-1814BLT Adapter: 4 ID: 0
Режим чтения : ДостоверностьИспользование точного потока : ДаОтключение кэша аудио : ДаИспользование указателей C2 : Нет
Коррекция смещения при чтении : 6Способность читать области Lead-in и Lead-out : НетЗаполнение пропущенных сэмплов тишиной : ДаУдаление блоков с тишиной в начале и конце : НетПри вычислениях CRC использовались нулевые сэмплы : ДаИнтерфейс : Встроенный Win32-интерфейс для Win NT/2000Обработка зазоров : Добавлено к предыдущему треку
Выходной формат : Пользовательский кодировщикВыбранный битрейт : 128 kBit/sКачество : ВысокийДобавление ID3-тега : НетУтилита сжатия : C:\Program Files\Exact Audio Copy\Flac\flac.exeДополнительные параметры : -V -8 -T "Genre=%genre%" -T "Artist=%artist%" -T "Title=%title%" -T "Album=%albumtitle%" -T "Date=%year%" -T "Tracknumber=%tracknr%" -T "Comment=EAC1.0b2 FLAC -8" %source%
TOC извлечённого CD
Трек | Старт | Длительность | Начальный сектор | Конечный сектор --------------------------------------------------------------------- 1 | 0:00.00 | 6:43.18 | 0 | 30242 2 | 6:43.18 | 4:31.62 | 30243 | 50629 3 | 11:15.05 | 5:14.21 | 50630 | 74200 4 | 16:29.26 | 4:51.40 | 74201 | 96065 5 | 21:20.66 | 5:04.26 | 96066 | 118891 6 | 26:25.17 | 5:50.73 | 118892 | 145214 7 | 32:16.15 | 4:57.04 | 145215 | 167493 8 | 37:13.19 | 4:06.03 | 167494 | 185946 9 | 41:19.22 | 4:37.14 | 185947 | 206735 10 | 45:56.36 | 5:03.03 | 206736 | 229463
Трек 1
Имя файла R:\Раздача 19\Planet P Project - 2005 - 1931\01 My Radio Talks To Me.wav
Длина предзазора 0:00:02.00
Пиковый уровень 99.6 % Скорость извлечения 5.6 X Качество трека 100.0 % CRC теста DD7C3C16 CRC копии DD7C3C16 Копирование... OK
Трек 2
Имя файла R:\Раздача 19\Planet P Project - 2005 - 1931\02 Join The Parade.wav
Длина предзазора 0:00:02.00
Пиковый уровень 96.8 % Скорость извлечения 6.1 X Качество трека 100.0 % CRC теста D36B22E0 CRC копии D36B22E0 Копирование... OK
Трек 3
Имя файла R:\Раздача 19\Planet P Project - 2005 - 1931\03 Good Little Soldiers.wav
Длина предзазора 0:00:02.00
Пиковый уровень 98.2 % Скорость извлечения 6.8 X Качество трека 100.0 % CRC теста 73DEDD13 CRC копии 73DEDD13 Копирование... OK
Трек 4
Имя файла R:\Раздача 19\Planet P Project - 2005 - 1931\04 Work.wav
Длина предзазора 0:00:02.00
Пиковый уровень 98.7 % Скорость извлечения 7.2 X Качество трека 100.0 % CRC теста 094EE3AA CRC копии 094EE3AA Копирование... OK
Трек 5
Имя файла R:\Раздача 19\Planet P Project - 2005 - 1931\05 Judge And The Jury.wav
Длина предзазора 0:00:02.00
Пиковый уровень 99.5 % Скорость извлечения 7.8 X Качество трека 100.0 % CRC теста EB2CF479 CRC копии EB2CF479 Копирование... OK
Трек 6
Имя файла R:\Раздача 19\Planet P Project - 2005 - 1931\06 Other Side Of The Mountain.wav
Длина предзазора 0:00:02.00
Пиковый уровень 99.9 % Скорость извлечения 8.4 X Качество трека 100.0 % CRC теста BF06D00F CRC копии BF06D00F Копирование... OK
Трек 7
Имя файла R:\Раздача 19\Planet P Project - 2005 - 1931\07 Winter.wav
Длина предзазора 0:00:01.74
Пиковый уровень 94.8 % Скорость извлечения 8.7 X Качество трека 100.0 % CRC теста 6748FC81 CRC копии 6748FC81 Копирование... OK
Трек 8
Имя файла R:\Раздача 19\Planet P Project - 2005 - 1931\08 Believe It.wav
Длина предзазора 0:00:02.00
Пиковый уровень 95.5 % Скорость извлечения 7.8 X Качество трека 99.9 % CRC теста E5B64D65 CRC копии E5B64D65 Копирование... OK
Трек 9
Имя файла R:\Раздача 19\Planet P Project - 2005 - 1931\09 Things They Never Told Me.wav
Длина предзазора 0:00:02.00
Пиковый уровень 96.5 % Скорость извлечения 8.3 X Качество трека 99.9 % CRC теста 0A900AE9 CRC копии 0A900AE9 Копирование... OK
Трек 10
Имя файла R:\Раздача 19\Planet P Project - 2005 - 1931\10 Where Does It Go.wav
Длина предзазора 0:00:02.00
Пиковый уровень 99.7 % Скорость извлечения 9.8 X Качество трека 100.0 % CRC теста DF8ED368 CRC копии DF8ED368 Копирование... OK
Ошибок не произошло
Конец отчёта
==== Контрольная сумма отчёта 59E5CD7E8B03558DA371B3E1FA2A2F3AE55C4E14929D1F266C3A3F87E64B5633 ====

Содержание индексной карты (.CUE)

REM GENRE "Progressive Rock"REM DATE 2005REM DISCID 9A0BF30AREM COMMENT "ExactAudioCopy v1.0b3"PERFORMER "Planet P Project"TITLE "1931"FILE "01 My Radio Talks To Me.wav" WAVE TRACK 01 AUDIO TITLE "My Radio Talks To Me" PERFORMER "Planet P Project" FLAGS DCP INDEX 01 00:00:00 TRACK 02 AUDIO TITLE "Join The Parade" PERFORMER "Planet P Project" FLAGS DCP INDEX 00 06:41:18FILE "02 Join The Parade.wav" WAVE INDEX 01 00:00:00 TRACK 03 AUDIO TITLE "Good Little Soldiers" PERFORMER "Planet P Project" FLAGS DCP INDEX 00 04:29:62FILE "03 Good Little Soldiers.wav" WAVE INDEX 01 00:00:00 TRACK 04 AUDIO TITLE "Work" PERFORMER "Planet P Project" FLAGS DCP INDEX 00 05:12:21FILE "04 Work.wav" WAVE INDEX 01 00:00:00 TRACK 05 AUDIO TITLE "Judge And The Jury" PERFORMER "Planet P Project" FLAGS DCP INDEX 00 04:49:40FILE "05 Judge And The Jury.wav" WAVE INDEX 01 00:00:00 TRACK 06 AUDIO TITLE "Other Side Of The Mountain" PERFORMER "Planet P Project" FLAGS DCP INDEX 00 05:02:26FILE "06 Other Side Of The Mountain.wav" WAVE INDEX 01 00:00:00 TRACK 07 AUDIO TITLE "Winter" PERFORMER "Planet P Project" FLAGS DCP INDEX 00 05:48:74FILE "07 Winter.wav" WAVE INDEX 01 00:00:00 TRACK 08 AUDIO TITLE "Believe It" PERFORMER "Planet P Project" FLAGS DCP INDEX 00 04:55:04FILE "08 Believe It.wav" WAVE INDEX 01 00:00:00 TRACK 09 AUDIO TITLE "Things They Never Told Me" PERFORMER "Planet P Project" FLAGS DCP INDEX 00 04:04:03FILE "09 Things They Never Told Me.wav" WAVE INDEX 01 00:00:00 TRACK 10 AUDIO TITLE "Where Does It Go" PERFORMER "Planet P Project" FLAGS DCP INDEX 00 04:35:14FILE "10 Where Does It Go.wav" WAVE INDEX 01 00:00:00
 
Показать сообщения:    

Текущее время: Сегодня 10:47

Часовой пояс: GMT



Вы не можете начинать темы
Вы не можете отвечать на сообщения
Вы не можете редактировать свои сообщения
Вы не можете удалять свои сообщения
Вы не можете голосовать в опросах
Вы не можете прикреплять файлы к сообщениям
Вы не можете скачивать файлы