Pink Floyd - Marooned (2014) HDTVRip [1080p]

 
Автор Сообщение

sergej644 ®

Пол:

Стаж: 4 года 11 месяцев

Сообщений: 6044

Откуда: Soviet Union



Награды: Нет

Торрент-статистика

Создавать темы 02-Авг-2014 20:35

[Цитировать]

- Pink Floyd - Marooned (2014) HDTVRip [1080p]- Исполнитель: Pink Floyd
Год выпуска: 2014
Жанр: Progressive Rock
Продолжительность: 00:05:25
Описание: Pink Floyd состоялась премьера видеоклипа на композицию «Marooned», часть сюжета которого была снята в Украине. Кадры заброшенных мрачных домов на фоне инструментальной композиции завораживают и отсылают нас к советской действительности. Выход данного видео приурочен к 20-летию последнего студийного альбома группы «Division Bell», в который входит и положенная в основу клипа мелодия. Видео, являющееся лишь одним из сюрпризов поклонникам к круглой дате, было снято режиссером Обри Пауэллом.
Качество видео: HDTVRip [1080p]
Видеокодек: MPEG-4 AVC/H.264
Битрейт видео: ~8000 Кбит/с
Размер кадра: 1920x1080 (16:9), 24,000 кадров/с
Аудиокодек: AAC, 2 ch, stereo
Битрейт аудио: 215 Кбит/с

MediaInfo:

Общее
Полное имя : Pink Floyd - Marooned .mp4
Формат : MPEG-4
Профиль формата : Base Media / Version 2
Идентификатор кодека : mp42
Размер файла : 319 Мбайт
Продолжительность : 5 м. 25 с.
Режим общего битрейта : Переменный
Общий поток : 8222 Кбит/сек
Видео
Идентификатор : 1
Формат : AVC
Формат/Информация : Advanced Video Codec
Профиль формата : [url=mailto:High@L4.0]High@L4.0[/url]
Параметр CABAC формата : Нет
Параметр ReFrames формата : 1 кадр
Идентификатор кодека : avc1
Идентификатор кодека/Информация : Advanced Video Coding
Продолжительность : 5 м. 25 с.
Продолжительность оригинала : 5 м. 25 с.
Битрейт : 8000 Кбит/сек
Ширина : 1920 пикселей
Высота : 1080 пикселей
Соотношение сторон : 16:9
Режим частоты кадров : Переменный
Частота кадров : 24,000 кадра/сек
Минимальная частота кадров : 24,000 кадра/сек
Максимальная частота кадров : 24,006 кадра/сек
Цветовое пространство : YUV
Субдискретизация насыщенности : 4:2:0
Битовая глубина : 8 бит
Тип развёртки : Прогрессивная
Бит/(Пиксели*Кадры) : 0.161
Размер потока : 311 Мбайт (97%)
Размер потока оригинала : 311 Мбайт (97%)
Библиотека кодирования : x264 core 116 r2019 9cc407d
Настройки программы : cabac=0 / ref=1 / deblock=1:0:0 / analyse=0x3:0x113 / me=hex / subme=7 / psy=1 / psy_rd=1.00:0.00 / mixed_ref=0 / me_range=16 / chroma_me=1 / trellis=1 / 8x8dct=1 / cqm=0 / deadzone=21,11 / fast_pskip=1 / chroma_qp_offset=-2 / threads=3 / sliced_threads=0 / nr=0 / decimate=1 / interlaced=0 / bluray_compat=0 / constrained_intra=0 / bframes=0 / weightp=2 / keyint=250 / keyint_min=24 / scenecut=40 / intra_refresh=0 / rc_lookahead=40 / rc=abr / mbtree=1 / bitrate=8000 / ratetol=1.0 / qcomp=0.60 / qpmin=0 / qpmax=69 / qpstep=4 / ip_ratio=1.40 / aq=1:1.00
Язык : English
mdhd_Duration : 325749
Аудио
Идентификатор : 2
Формат : AAC
Формат/Информация : Advanced Audio Codec
Профиль формата : LC
Идентификатор кодека : 40
Продолжительность : 5 м. 25 с.
Продолжительность оригинала : 5 м. 25 с.
Вид битрейта : Переменный
Битрейт : 215 Кбит/сек
Каналы : 2 канала
Расположение каналов : Front: L R
Частота : 44,1 КГц
Метод сжатия : С потерями
Размер потока : 8,35 Мбайт (3%)
Размер потока оригинала : 8,35 Мбайт (3%)
Язык : English
mdhd_Duration : 325729
Скриншоты:
[Профиль] [ЛС]

Создавать темы 13-Авг-2015 12:08 (спустя 1 год)

Топик был перенесен из форума Видеоклипы в форум Зарубежные клипы
sergej644
 
Показать сообщения:    

Текущее время: Сегодня 10:07

Часовой пояс: GMT



Вы не можете начинать темы
Вы не можете отвечать на сообщения
Вы не можете редактировать свои сообщения
Вы не можете удалять свои сообщения
Вы не можете голосовать в опросах
Вы не можете прикреплять файлы к сообщениям
Вы не можете скачивать файлы