Pink Floyd: Создание Альбома "The Dark Side of the Moon" / Pink Floyd: The Making of "The Dark Side of the Moon" (2003) HDTVRip 720p

 
Автор Сообщение

sergej644 ®

Пол:

Стаж: 4 года 11 месяцев

Сообщений: 6040

Откуда: Soviet Union



Награды: Нет

Торрент-статистика

Создавать темы 08-Авг-2015 23:23

[Цитировать]

Классические Альбомы. Pink Floyd: Создание Альбома «The Dark Side of the Moon» / Classic Albums. Pink Floyd: The Making of «The Dark Side of the Moon»- Год выпуска: 2003
Страна: Великобритания
Студия: Eagle Rock Entertainment | Isis Productions | Pink Floyd Music
Жанр: Документальный
Продолжительность: 0:48:27
Перевод: Профессиональный (многоголосый закадровый) | Первый Канал
Режиссер: Мэттью Лонгфеллоу / Matthew Longfellow-Описание: «The Dark Side of the Moon» - один из величайших альбомов всех времeн. Феномен статистики. Свыше 30 миллионов проданных пластинок, 740 недель (больше 14 лет) в чартах США. Этот фильм рассказывает историю создания шедевра – альбома Pink Floyd "The Dark Side Of The Moon", очаровавшего несколько поколений и занявшего место в книгах мировых рекордов.
-Автор рипа: lrn
Автор записи: Alexin29
Сэмпл: sendfile-Тип релиза: HDTVRip 720p
Контейнер: MKV
Видео: 1280x720 (16:9), 25,000 fps, H264, ~4000 kbps avg, ~0.174 bit/pixel
Аудио: 48 kHz, AC3 Dolby Digital, 3/2 (L,C,R,l,r) + LFE ch, ~384.00 kbps avg-

MediaInfo

General
Unique ID : 175420221184823495368101868779568822874 (0x83F8B4A7A599E6ABB9F504403206FA5A)
Complete name : E:uTorrent.TempTempThe.Making.of.The.Dark.Side.of.the.Moon.2003.HDTV.720p.x264-RUS-lrn.mkv
Format : Matroska
Format version : Version 4 / Version 2
File size : 1.48 GiB
Duration : 48mn 27s
Overall bit rate : 4 386 Kbps
Movie name : The.Making.of.The.Dark.Side.of.the.Moon.2003.HDTV.720p.x264-RUS-lrn
Encoded date : UTC 2010-02-22 21:41:31
Writing application : mkvmerge v5.9.0 ('On The Loose') built on Dec 9 2012 15:37:01
Writing library : libebml v1.3.0 + libmatroska v1.4.0
DURATION : 00:48:27.560000000
NUMBER_OF_FRAMES : 72689
NUMBER_OF_BYTES : 1453855922
_STATISTICS_WRITING_APP : mkvmerge v7.7.0 ('Six Voices') 32bit built on Feb 28 2015 23:23:00
_STATISTICS_WRITING_DATE_UT : 2015-08-08 15:03:39
_STATISTICS_TAGS : BPS DURATION NUMBER_OF_FRAMES NUMBER_OF_BYTES
Video
ID : 1
Format : AVC
Format/Info : Advanced Video Codec
Format profile : High@L4.1
Format settings, CABAC : Yes
Format settings, ReFrames : 8 frames
Codec ID : V_MPEG4/ISO/AVC
Duration : 48mn 27s
Bit rate : 4 000 Kbps
Width : 1 280 pixels
Height : 720 pixels
Display aspect ratio : 16:9
Frame rate mode : Constant
Frame rate : 25.000 fps
Color space : YUV
Chroma subsampling : 4:2:0
Bit depth : 8 bits
Scan type : Progressive
Bits/(Pixel*Frame) : 0.174
Stream size : 1.33 GiB (89%)
Writing library : x264 core 146 r2538 121396c
Encoding settings : cabac=1 / ref=8 / deblock=1:-3:-3 / analyse=0x3:0x133 / me=umh / subme=9 / psy=1 / psy_rd=1.00:0.00 / mixed_ref=1 / me_range=32 / chroma_me=1 / trellis=2 / 8x8dct=1 / cqm=0 / deadzone=21,11 / fast_pskip=1 / chroma_qp_offset=-2 / threads=12 / lookahead_threads=2 / sliced_threads=0 / nr=0 / decimate=1 / interlaced=0 / bluray_compat=0 / constrained_intra=0 / bframes=8 / b_pyramid=2 / b_adapt=2 / b_bias=0 / direct=3 / weightb=1 / open_gop=0 / weightp=2 / keyint=250 / keyint_min=25 / scenecut=40 / intra_refresh=0 / rc_lookahead=50 / rc=2pass / mbtree=1 / bitrate=4000 / ratetol=1.0 / qcomp=0.60 / qpmin=0 / qpmax=69 / qpstep=4 / cplxblur=20.0 / qblur=0.5 / vbv_maxrate=62500 / vbv_bufsize=78125 / nal_hrd=none / filler=0 / ip_ratio=1.40 / aq=1:1.00
Default : Yes
Forced : No
Audio
ID : 2
Format : AC-3
Format/Info : Audio Coding 3
Mode extension : CM (complete main)
Format settings, Endianness : Big
Codec ID : A_AC3
Duration : 48mn 27s
Bit rate mode : Constant
Bit rate : 384 Kbps
Channel(s) : 6 channels
Channel positions : Front: L C R, Side: L R, LFE
Sampling rate : 48.0 KHz
Compression mode : Lossy
Delay relative to video : 100ms
Stream size : 133 MiB (9%)
Language : Russian
Default : Yes
Forced : No

x264 log

raw [info]: 1280x720p 1:1 @ 25/1 fps (cfr)
x264 [info]: using SAR=1/1
x264 [info]: using cpu capabilities: MMX2 SSE2Fast SSSE3 SSE4.2 AVX
x264 [info]: profile High, level 4.1
x264 [info]: frame I:473 Avg QP:12.87 size:100469
x264 [info]: frame P:19110 Avg QP:15.29 size: 40321
x264 [info]: frame B:53106 Avg QP:17.18 size: 11972
x264 [info]: consecutive B-frames: 2.1% 4.2% 5.0% 73.4% 7.0% 6.8% 0.6% 0.6% 0.4%
x264 [info]: mb I I16..4: 6.9% 82.1% 11.0%
x264 [info]: mb P I16..4: 1.6% 12.6% 1.0% P16..4: 39.5% 25.5% 13.1% 0.4% 0.1% skip: 6.1%
x264 [info]: mb B I16..4: 0.1% 1.3% 0.1% B16..8: 34.3% 10.2% 2.1% direct: 9.4% skip:42.4% L0:42.2% L1:44.3% BI:13.5%
x264 [info]: 8x8 transform intra:83.3% inter:61.4%
x264 [info]: direct mvs spatial:97.7% temporal:2.3%
x264 [info]: coded y,uvDC,uvAC intra: 83.0% 81.8% 54.3% inter: 28.3% 29.2% 3.2%
x264 [info]: i16 v,h,dc,p: 46% 15% 8% 31%
x264 [info]: i8 v,h,dc,ddl,ddr,vr,hd,vl,hu: 12% 11% 8% 8% 12% 13% 12% 12% 13%
x264 [info]: i4 v,h,dc,ddl,ddr,vr,hd,vl,hu: 11% 9% 5% 9% 14% 14% 13% 11% 13%
x264 [info]: i8c dc,h,v,p: 39% 25% 19% 17%
x264 [info]: Weighted P-Frames: Y:6.1% UV:3.6%
x264 [info]: ref P L0: 50.4% 8.9% 17.1% 6.9% 5.3% 4.5% 3.7% 2.9% 0.2% 0.0%
x264 [info]: ref B L0: 79.5% 11.1% 4.1% 2.0% 1.5% 1.0% 0.6%
x264 [info]: ref B L1: 96.2% 3.8%
x264 [info]: kb/s:4000.21
encoded 72689 frames, 12.99 fps, 4000.21 kb/s

Скриншоты

[Профиль] [ЛС]
Показать сообщения:    

Текущее время: Сегодня 02:36

Часовой пояс: GMT



Вы не можете начинать темы
Вы не можете отвечать на сообщения
Вы не можете редактировать свои сообщения
Вы не можете удалять свои сообщения
Вы не можете голосовать в опросах
Вы не можете прикреплять файлы к сообщениям
Вы не можете скачивать файлы