(Hard-Rock) Phil Rudd (AC-DC drummer) - Head Job - 2014 [FLAC, image+.cue, lossless]

 
Автор Сообщение

sergej644 ®

Пол:

Стаж: 4 года 11 месяцев

Сообщений: 6044

Откуда: Soviet Union



Награды: Нет

Торрент-статистика

Создавать темы 28-Окт-2014 17:26

[Цитировать]

-Phil Rudd (AC-DC drummer) / Head Job-- Год издания: 2014
Страна: Australia
Жанр: Hard-Rock
Продолжительность: 00:40:29-Лейбл издания: Universal Music
Страна-выпуска диска: Australia
Номер по каталогу: PRCD001
Формат: FLAC
Битрейт аудио: lossless
Тип рипа: image+.cue
Наличие сканов в содержимом раздачи: да
-

Трэклист

01. Headjob (03:34)
02. Sun Goes Down (02:50)
03. Lonely Child (04:02)
04. Lost In America (03:42)
05. Crazy (03:52)
06. Bad Move (02:40)
07. No Right (04:07)
08. The Otherside (04:31)
09. Forty Days (03:35)
10. Repo Man (03:22)
11. When I Get My Hands On You (04:04)

Лог создания рипа

Exact Audio Copy V1.0 beta 3 from 29. August 2011
Отчёт EAC об извлечении, выполненном 22. октября 2014, 19:29
Phil Rudd / Head Job
Дисковод: _NEC    DVD_RW ND-4570A   Adapter: 3  ID: 0
Режим чтения                 : Достоверность
Использование точного потока : Да
Отключение кэша аудио        : Да
Использование указателей C2  : Нет
Коррекция смещения при чтении                     : 48
Способность читать области Lead-in и Lead-out     : Нет
Заполнение пропущенных сэмплов тишиной            : Да
Удаление блоков с тишиной в начале и конце        : Нет
При вычислениях CRC использовались нулевые сэмплы : Да
Интерфейс                                         : Встроенный Win32-интерфейс для Win NT/2000
Выходной формат          : Пользовательский кодировщик
Выбранный битрейт        : 768 kBit/s
Качество                 : Высокий
Добавление ID3-тега      : Нет
Утилита сжатия           : C:\Program Files\Exact Audio Copy\FLAC\FLAC.EXE
Дополнительные параметры : -6 -V -T "ARTIST=%artist%" -T "TITLE=%title%" -T "ALBUM=%albumtitle%" -T "DATE=%year%" -T "TRACKNUMBER=%tracknr%" -T "GENRE=%genre%" -T "COMMENT=%comment%" -T "BAND=%albuminterpret%" -T "ALBUMARTIST=%albuminterpret%" -T "COMPOSER=%composer%" %haslyrics%--tag-from-file=LYRICS="%lyricsfile%"%haslyrics% -T "DISCNUMBER=%cdnumber%" -T "TOTALDISCS=%totalcds%" -T "TOTALTRACKS=%numtracks%" %hascover%--picture="%coverfile%"%hascover% %source% -o %dest%
TOC извлечённого CD
Трек |   Старт  | Длительность | Начальный сектор | Конечный сектор
---------------------------------------------------------------------
1  |  0:00.00 |    3:34.74   |           0      |      16123
2  |  3:34.74 |    2:50.55   |       16124      |      28928
3  |  6:25.54 |    4:02.73   |       28929      |      47151
4  | 10:28.52 |    3:42.51   |       47152      |      63852
5  | 14:11.28 |    3:52.63   |       63853      |      81315
6  | 18:04.16 |    2:40.60   |       81316      |      93375
7  | 20:45.01 |    4:07.51   |       93376      |     111951
8  | 24:52.52 |    4:31.07   |      111952      |     132283
9  | 29:23.59 |    3:35.65   |      132284      |     148473
10  | 32:59.49 |    3:22.72   |      148474      |     163695
11  | 36:22.46 |    4:04.37   |      163696      |     182032
Характеристики диапазона извлечения и сообщения об ошибках
Выбранный диапазон
Имя файла C:\Users\TITANIUM\Desktop\Phil Rudd - Head Job - 2014 - 40'29''\Phil Rudd - Head Job.wav
Пиковый уровень 99.4 %
Скорость извлечения 4.8 X
Качество диапазона 99.9 %
CRC теста 29ECEC21
CRC копии 29ECEC21
Копирование... OK
Ошибок не произошло
Конец отчёта
==== Контрольная сумма отчёта 6D64F65627B7C06B8A2A54FFD6300B6B53075947E2EC19358D2B1C9273DEB79B ====

Индексная карта (non-compilant .cue)

REM GENRE "Hard Rock"
REM DATE 2014
REM DISCID 9A097B0B
REM COMMENT "ExactAudioCopy v1.0b3"
PERFORMER "Phil Rudd"
TITLE "Head Job"
FILE "Phil Rudd - Head Job.flac" WAVE
TRACK 01 AUDIO
TITLE "Headjob"
PERFORMER "Phil Rudd"
INDEX 01 00:00:00
TRACK 02 AUDIO
TITLE "Sun Goes Down"
PERFORMER "Phil Rudd"
INDEX 01 03:34:74
TRACK 03 AUDIO
TITLE "Lonely Child"
PERFORMER "Phil Rudd"
INDEX 01 06:25:54
TRACK 04 AUDIO
TITLE "Lost In America"
PERFORMER "Phil Rudd"
INDEX 01 10:28:52
TRACK 05 AUDIO
TITLE "Crazy"
PERFORMER "Phil Rudd"
INDEX 01 14:11:28
TRACK 06 AUDIO
TITLE "Bad Move"
PERFORMER "Phil Rudd"
INDEX 01 18:04:16
TRACK 07 AUDIO
TITLE "No Right"
PERFORMER "Phil Rudd"
INDEX 01 20:45:01
TRACK 08 AUDIO
TITLE "The Otherside"
PERFORMER "Phil Rudd"
INDEX 01 24:52:52
TRACK 09 AUDIO
TITLE "Forty Days"
PERFORMER "Phil Rudd"
INDEX 01 29:23:59
TRACK 10 AUDIO
TITLE "Repo Man"
PERFORMER "Phil Rudd"
INDEX 01 32:59:49
TRACK 11 AUDIO
TITLE "When I Get My Hands On You"
PERFORMER "Phil Rudd"
INDEX 01 36:22:46

Лог Audiochecker

-----------------------
DON'T MODIFY THIS FILE
-----------------------
PERFORMER: auCDtect Task Manager, ver. 1.5.1RC4 build 1.5.1.5
Copyright (c) 2008-2010 y-soft. All rights reserved
http://y-soft.org
ANALYZER: auCDtect: CD records authenticity detector, version 0.8.2
Copyright (c) 2004 Oleg Berngardt. All rights reserved.
Copyright (c) 2004 Alexander Djourik. All rights reserved.
FILE: Phil Rudd - Head Job.flac
Size: 302771940 Hash: D379F388C92F97008FA547E934271053 Accuracy: -m0
Conclusion: CDDA 100%
Signature: 834757868DFC15FAFEC19127B9799161BE552798

Скриншот спектра частот

--
[Профиль] [ЛС]
Показать сообщения:    

Текущее время: Сегодня 14:28

Часовой пояс: GMT



Вы не можете начинать темы
Вы не можете отвечать на сообщения
Вы не можете редактировать свои сообщения
Вы не можете удалять свои сообщения
Вы не можете голосовать в опросах
Вы не можете прикреплять файлы к сообщениям
Вы не можете скачивать файлы