(Rock) Phil Collins - Face Value, Both Sides (Deluxe Edition, Remastered, 4CD) - 2016 [FLAC, image +.cue, lossless]

 
Автор Сообщение

sergej644 ®

Пол:

Стаж: 4 года 11 месяцев

Сообщений: 6046

Откуда: Soviet Union



Награды: Нет

Торрент-статистика

Создавать темы 03-Фев-2016 11:33

[Цитировать]

-Phil Collins - Face Value, Both Sides (Deluxe Edition, Remastered, 4CD)--
Год | Год издания: 1981, 1993 | 2016
Страна: UK
Жанр: Rock
Продолжительность: 03:57:10-Лейбл издания: Atlantic Recording Corporation
Страна-выпуска диска: EU
Номер по каталогу: 081227953942 / 081227953966-Формат: FLAC
Битрейт аудио: Lossless
Тип рипа: image +.cue
Наличие сканов в содержимом раздачи: да
-

1981 - Face Value (Deluxe Edition) (2CD)

CD 1 | 00:47:54


01. In The Air Tonight (05:37)
02. This Must Be Love (03:57)
03. Behind The Lines (03:56)
04. The Roof Is Leaking (03:17)
05. Droned (02:50)
06. Hand In Hand (05:23)
07. I Missed Again (03:47)
08. You Know What I Mean (02:34)
09. Thunder And Lightning (04:14)
10. I’m Not Moving (02:36)
11. If Leaving Me Is Easy (04:56)
12. Tomorrow Never Knows (04:53)

CD 2 | 01:01:01


01. Misunderstanding (Live) (04:43)
02. If Leaving Me Is Easy (Live) (07:24)
03. In The Air Tonight (Live) (07:52)
04. Behind The Lines (Live) (03:40)
05. The Roof Is Leaking (Live) (03:13)
06. Hand In Hand (Live) (09:48)
07. I Missed Again (Live) (04:23)
08. ... And So To F (Live) (06:22)
09. This Must Be LOve (Demo) (03:45)
10. Please Don't Ask (Demo) (04:02)
11. Misunderstanding (Demo) (02:54)
12. Against All Odds (Demo) (02:59)

1993 - Both Sides (Deluxe Edition) (2CD)

CD 1 | 01:07:20


01. Both Sides Of The Story (06:44)
02. Can't Turn Back The Years (04:41)
03. Everyday (05:44)
04. I've Forgotten Everything (05:16)
05. We're Sons Of Our Fathers (06:25)
06. Can't Find My Way (05:10)
07. Survivors (06:05)
08. We Fly So Close (07:34)
09. There's A Place for Us (06:53)
10. We Wait And We Wonder (07:02)
11. Please Come Out Tonight (05:50)

CD 2 | 01:00:57


01. Take Me With You (05:23)
02. Both Sides Of The Story (Live) (08:12)
03. Can't Turn Back The Years (Live) (06:55)
04. Survivors (Live) (06:43)
05. Everyday (Live) (06:04)
06. We Wait And We Wonder (Live) (07:43)
07. Can't Find My Way (Demo) (04:49)
08. I've Been Trying (05:02)
09. Both Sides Of The Story (Paris Unplugged) (05:21)
10. Hero (Demo) (04:48)
-

Лог создания рипа

1981 - Face Value (Deluxe Edition) (2CD)

CD 1

Exact Audio Copy V1.1 from 23. June 2015
EAC extraction logfile from 29. January 2016, 18:30
Phil Collins / Face Value (Deluxe Edition) CD1
Used drive  : HL-DT-STDVDRAM GH24NSD1   Adapter: 0  ID: 0
Read mode               : Secure
Utilize accurate stream : Yes
Defeat audio cache      : Yes
Make use of C2 pointers : No
Read offset correction                      : 6
Overread into Lead-In and Lead-Out          : No
Fill up missing offset samples with silence : Yes
Delete leading and trailing silent blocks   : No
Null samples used in CRC calculations       : Yes
Used interface                              : Installed external ASPI interface
Used output format : Internal WAV Routines
Sample format      : 44.100 Hz; 16 Bit; Stereo
TOC of the extracted CD
     Track |   Start  |  Length  | Start sector | End sector
    ---------------------------------------------------------
        1  |  0:00.00 |  5:36.34 |         0    |    25233
        2  |  5:36.34 |  3:56.25 |     25234    |    42958
        3  |  9:32.59 |  3:55.59 |     42959    |    60642
        4  | 13:28.43 |  3:16.44 |     60643    |    75386
        5  | 16:45.12 |  2:49.47 |     75387    |    88108
        6  | 19:34.59 |  5:22.45 |     88109    |   112303
        7  | 24:57.29 |  3:46.17 |    112304    |   129270
        8  | 28:43.46 |  2:33.08 |    129271    |   140753
        9  | 31:16.54 |  4:13.63 |    140754    |   159791
       10  | 35:30.42 |  2:35.28 |    159792    |   171444
       11  | 38:05.70 |  4:55.21 |    171445    |   193590
       12  | 43:01.16 |  4:52.12 |    193591    |   215502
Range status and errors
Selected range
     Filename E:\SPOT NIEUW\Phil Collins - Face Value 2016 (EAC)\CD1\Phil Collins - Face Value (Deluxe Edition) CD1.wav
     Peak level 98.9 %
     Extraction speed 6.9 X
     Range quality 100.0 %
     Test CRC 38A00BCA
     Copy CRC 38A00BCA
     Copy OK
No errors occurred
AccurateRip summary
Track  1  not present in database
Track  2  not present in database
Track  3  not present in database
Track  4  not present in database
Track  5  not present in database
Track  6  not present in database
Track  7  not present in database
Track  8  not present in database
Track  9  not present in database
Track 10  not present in database
Track 11  not present in database
Track 12  not present in database
None of the tracks are present in the AccurateRip database
End of status report

CD 2

Exact Audio Copy V1.1 from 23. June 2015
EAC extraction logfile from 29. January 2016, 19:34
Phil Collins / Face Value (Deluxe Edition) CD2
Used drive  : HL-DT-STDVDRAM GH24NSD1   Adapter: 0  ID: 0
Read mode               : Secure
Utilize accurate stream : Yes
Defeat audio cache      : Yes
Make use of C2 pointers : No
Read offset correction                      : 6
Overread into Lead-In and Lead-Out          : No
Fill up missing offset samples with silence : Yes
Delete leading and trailing silent blocks   : No
Null samples used in CRC calculations       : Yes
Used interface                              : Installed external ASPI interface
Used output format : Internal WAV Routines
Sample format      : 44.100 Hz; 16 Bit; Stereo
TOC of the extracted CD
     Track |   Start  |  Length  | Start sector | End sector
    ---------------------------------------------------------
        1  |  0:00.00 |  4:42.50 |         0    |    21199
        2  |  4:42.50 |  7:23.54 |     21200    |    54478
        3  | 12:06.29 |  7:51.67 |     54479    |    89870
        4  | 19:58.21 |  3:39.68 |     89871    |   106363
        5  | 23:38.14 |  3:12.01 |    106364    |   120764
        6  | 26:50.15 |  9:47.65 |    120765    |   164854
        7  | 36:38.05 |  4:22.44 |    164855    |   184548
        8  | 41:00.49 |  6:22.00 |    184549    |   213198
        9  | 47:22.49 |  3:44.37 |    213199    |   230035
       10  | 51:07.11 |  4:01.13 |    230036    |   248123
       11  | 55:08.24 |  2:53.48 |    248124    |   261146
       12  | 58:01.72 |  2:58.48 |    261147    |   274544
Range status and errors
Selected range
     Filename E:\SPOT NIEUW\Phil Collins - Face Value 2016 (EAC)\CD2\Phil Collins - Face Value (Deluxe Edition) CD2.wav
     Peak level 98.9 %
     Extraction speed 7.9 X
     Range quality 99.9 %
     Test CRC 42B13074
     Copy CRC 42B13074
     Copy OK
No errors occurred
AccurateRip summary
Track  1  not present in database
Track  2  not present in database
Track  3  not present in database
Track  4  not present in database
Track  5  not present in database
Track  6  not present in database
Track  7  not present in database
Track  8  not present in database
Track  9  not present in database
Track 10  not present in database
Track 11  not present in database
Track 12  not present in database
None of the tracks are present in the AccurateRip database
End of status report

1993 - Both Sides (Deluxe Edition) (2CD)

CD 1

Exact Audio Copy V1.1 from 23. June 2015
EAC extraction logfile from 29. January 2016, 23:35
Phil Collins / Both Sides (Deluxe Edition) CD1
Used drive  : HL-DT-STDVDRAM GH24NSD1   Adapter: 0  ID: 0
Read mode               : Secure
Utilize accurate stream : Yes
Defeat audio cache      : Yes
Make use of C2 pointers : No
Read offset correction                      : 6
Overread into Lead-In and Lead-Out          : No
Fill up missing offset samples with silence : Yes
Delete leading and trailing silent blocks   : No
Null samples used in CRC calculations       : Yes
Used interface                              : Installed external ASPI interface
Used output format : Internal WAV Routines
Sample format      : 44.100 Hz; 16 Bit; Stereo
TOC of the extracted CD
     Track |   Start  |  Length  | Start sector | End sector
    ---------------------------------------------------------
        1  |  0:00.00 |  6:43.69 |         0    |    30293
        2  |  6:43.69 |  4:40.38 |     30294    |    51331
        3  | 11:24.32 |  5:43.67 |     51332    |    77123
        4  | 17:08.24 |  5:15.03 |     77124    |   100751
        5  | 22:23.27 |  6:24.45 |    100752    |   129596
        6  | 28:47.72 |  5:09.17 |    129597    |   152788
        7  | 33:57.14 |  6:04.74 |    152789    |   180162
        8  | 40:02.13 |  7:33.57 |    180163    |   214194
        9  | 47:35.70 |  6:52.67 |    214195    |   245161
       10  | 54:28.62 |  7:01.07 |    245162    |   276743
       11  | 61:29.69 |  5:49.21 |    276744    |   302939
Range status and errors
Selected range
     Filename E:\SPOT NIEUW\Phil Collins - Both Sides 2016 (EAC)\CD1\Phil Collins - Both Sides (Deluxe Edition) CD1.wav
     Peak level 96.4 %
     Extraction speed 7.9 X
     Range quality 100.0 %
     Test CRC F0009DE3
     Copy CRC F0009DE3
     Copy OK
No errors occurred
AccurateRip summary
Track  1  not present in database
Track  2  not present in database
Track  3  not present in database
Track  4  not present in database
Track  5  not present in database
Track  6  not present in database
Track  7  not present in database
Track  8  not present in database
Track  9  not present in database
Track 10  not present in database
Track 11  not present in database
None of the tracks are present in the AccurateRip database
End of status report

CD 2

Exact Audio Copy V1.1 from 23. June 2015
EAC extraction logfile from 29. January 2016, 23:56
Phil Collins / Both Sides (Deluxe Edition) CD2
Used drive  : HL-DT-STDVDRAM GH24NSD1   Adapter: 0  ID: 0
Read mode               : Secure
Utilize accurate stream : Yes
Defeat audio cache      : Yes
Make use of C2 pointers : No
Read offset correction                      : 6
Overread into Lead-In and Lead-Out          : No
Fill up missing offset samples with silence : Yes
Delete leading and trailing silent blocks   : No
Null samples used in CRC calculations       : Yes
Used interface                              : Installed external ASPI interface
Used output format : Internal WAV Routines
Sample format      : 44.100 Hz; 16 Bit; Stereo
TOC of the extracted CD
     Track |   Start  |  Length  | Start sector | End sector
    ---------------------------------------------------------
        1  |  0:00.00 |  5:22.54 |         0    |    24203
        2  |  5:22.54 |  8:11.68 |     24204    |    61096
        3  | 13:34.47 |  6:54.61 |     61097    |    92207
        4  | 20:29.33 |  6:42.30 |     92208    |   122387
        5  | 27:11.63 |  6:03.70 |    122388    |   149682
        6  | 33:15.58 |  7:42.74 |    149683    |   184406
        7  | 40:58.57 |  4:48.45 |    184407    |   206051
        8  | 45:47.27 |  5:01.15 |    206052    |   228641
        9  | 50:48.42 |  5:20.41 |    228642    |   252682
       10  | 56:09.08 |  4:47.35 |    252683    |   274242
Range status and errors
Selected range
     Filename E:\SPOT NIEUW\Phil Collins - Both Sides 2016 (EAC)\CD2\Phil Collins - Both Sides (Deluxe Edition) CD2.wav
     Peak level 98.8 %
     Extraction speed 7.8 X
     Range quality 100.0 %
     Test CRC 63D6D5FD
     Copy CRC 63D6D5FD
     Copy OK
No errors occurred
AccurateRip summary
Track  1  not present in database
Track  2  not present in database
Track  3  not present in database
Track  4  not present in database
Track  5  not present in database
Track  6  not present in database
Track  7  not present in database
Track  8  not present in database
Track  9  not present in database
Track 10  not present in database
None of the tracks are present in the AccurateRip database
End of status report

Индексная карта (non-compilant .cue)

1981 - Face Value (Deluxe Edition) (2CD)

CD 1

REM GENRE Pop
REM DATE 2016
REM DISCID AB0B390C
REM COMMENT "ExactAudioCopy v1.1"
PERFORMER "Phil Collins"
TITLE "Face Value (Deluxe Edition) CD1"
FILE "Phil Collins - Face Value (Deluxe Edition) CD1.flac" WAVE
  TRACK 01 AUDIO
    TITLE "In The Air Tonight"
    PERFORMER "Phil Collins"
    INDEX 01 00:00:00
  TRACK 02 AUDIO
    TITLE "This Must Be Love"
    PERFORMER "Phil Collins"
    INDEX 01 05:36:34
  TRACK 03 AUDIO
    TITLE "Behind The Lines"
    PERFORMER "Phil Collins"
    INDEX 01 09:32:59
  TRACK 04 AUDIO
    TITLE "The Roof Is Leaking"
    PERFORMER "Phil Collins"
    INDEX 01 13:28:43
  TRACK 05 AUDIO
    TITLE "Droned"
    PERFORMER "Phil Collins"
    INDEX 01 16:45:12
  TRACK 06 AUDIO
    TITLE "Hand In Hand"
    PERFORMER "Phil Collins"
    INDEX 01 19:34:59
  TRACK 07 AUDIO
    TITLE "I Missed Again"
    PERFORMER "Phil Collins"
    INDEX 01 24:57:29
  TRACK 08 AUDIO
    TITLE "You Know What I Mean"
    PERFORMER "Phil Collins"
    INDEX 01 28:43:46
  TRACK 09 AUDIO
    TITLE "Thunder And Lightning"
    PERFORMER "Phil Collins"
    INDEX 01 31:16:54
  TRACK 10 AUDIO
    TITLE "I’m Not Moving"
    PERFORMER "Phil Collins"
    INDEX 01 35:30:42
  TRACK 11 AUDIO
    TITLE "If Leaving Me Is Easy"
    PERFORMER "Phil Collins"
    INDEX 01 38:05:70
  TRACK 12 AUDIO
    TITLE "Tomorrow Never Knows"
    PERFORMER "Phil Collins"
    INDEX 01 43:01:16

CD 2

REM GENRE Pop
REM DATE 2016
REM DISCID 840E4C0C
REM COMMENT "ExactAudioCopy v1.1"
PERFORMER "Phil Collins"
TITLE "Face Value (Deluxe Edition) CD2"
FILE "Phil Collins - Face Value (Deluxe Edition) CD2.flac" WAVE
  TRACK 01 AUDIO
    TITLE "Misunderstanding (Live)"
    PERFORMER "Phil Collins"
    INDEX 01 00:00:00
  TRACK 02 AUDIO
    TITLE "If Leaving Me Is Easy (Live)"
    PERFORMER "Phil Collins"
    INDEX 01 04:42:50
  TRACK 03 AUDIO
    TITLE "In The Air Tonight (Live)"
    PERFORMER "Phil Collins"
    INDEX 01 12:06:29
  TRACK 04 AUDIO
    TITLE "Behind The Lines (Live)"
    PERFORMER "Phil Collins"
    INDEX 01 19:58:21
  TRACK 05 AUDIO
    TITLE "The Roof Is Leaking (Live)"
    PERFORMER "Phil Collins"
    INDEX 01 23:38:14
  TRACK 06 AUDIO
    TITLE "Hand In Hand (Live)"
    PERFORMER "Phil Collins"
    INDEX 01 26:50:15
  TRACK 07 AUDIO
    TITLE "I Missed Again (Live)"
    PERFORMER "Phil Collins"
    INDEX 01 36:38:05
  TRACK 08 AUDIO
    TITLE "... And So To F (Live)"
    PERFORMER "Phil Collins"
    INDEX 01 41:00:49
  TRACK 09 AUDIO
    TITLE "This Must Be LOve (Demo)"
    PERFORMER "Phil Collins"
    INDEX 01 47:22:49
  TRACK 10 AUDIO
    TITLE "Please Don't Ask (Demo)"
    PERFORMER "Phil Collins"
    INDEX 01 51:07:11
  TRACK 11 AUDIO
    TITLE "Misunderstanding (Demo)"
    PERFORMER "Phil Collins"
    INDEX 01 55:08:24
  TRACK 12 AUDIO
    TITLE "Against All Odds (Demo)"
    PERFORMER "Phil Collins"
    INDEX 01 58:01:72

1993 - Both Sides (Deluxe Edition) (2CD)

CD 1

REM GENRE Pop
REM DATE 2016
REM DISCID 900FC70B
REM COMMENT "ExactAudioCopy v1.1"
PERFORMER "Phil Collins"
TITLE "Both Sides (Deluxe Edition) CD1"
FILE "Phil Collins - Both Sides (Deluxe Edition) CD1.flac" WAVE
  TRACK 01 AUDIO
    TITLE "Both Sides Of The Story"
    PERFORMER "Phil Collins"
    INDEX 01 00:00:00
  TRACK 02 AUDIO
    TITLE "Can't Turn Back The Years"
    PERFORMER "Phil Collins"
    INDEX 01 06:43:69
  TRACK 03 AUDIO
    TITLE "Everyday"
    PERFORMER "Phil Collins"
    INDEX 01 11:24:32
  TRACK 04 AUDIO
    TITLE "I've Forgotten Everything"
    PERFORMER "Phil Collins"
    INDEX 01 17:08:24
  TRACK 05 AUDIO
    TITLE "We're Sons Of Our Fathers"
    PERFORMER "Phil Collins"
    INDEX 01 22:23:27
  TRACK 06 AUDIO
    TITLE "Can't Find My Way"
    PERFORMER "Phil Collins"
    INDEX 01 28:47:72
  TRACK 07 AUDIO
    TITLE "Survivors"
    PERFORMER "Phil Collins"
    INDEX 01 33:57:14
  TRACK 08 AUDIO
    TITLE "We Fly So Close"
    PERFORMER "Phil Collins"
    INDEX 01 40:02:13
  TRACK 09 AUDIO
    TITLE "There's A Place for Us"
    PERFORMER "Phil Collins"
    INDEX 01 47:35:70
  TRACK 10 AUDIO
    TITLE "We Wait And We Wonder"
    PERFORMER "Phil Collins"
    INDEX 01 54:28:62
  TRACK 11 AUDIO
    TITLE "Please Come Out Tonight"
    PERFORMER "Phil Collins"
    INDEX 01 61:29:69

CD 2

REM GENRE Pop
REM DATE 2016
REM DISCID 800E480A
REM COMMENT "ExactAudioCopy v1.1"
PERFORMER "Phil Collins"
TITLE "Both Sides (Deluxe Edition) CD2"
FILE "Phil Collins - Both Sides (Deluxe Edition) CD2.flac" WAVE
  TRACK 01 AUDIO
    TITLE "Take Me With You"
    PERFORMER "Phil Collins"
    INDEX 01 00:00:00
  TRACK 02 AUDIO
    TITLE "Both Sides Of The Story (Live)"
    PERFORMER "Phil Collins"
    INDEX 01 05:22:54
  TRACK 03 AUDIO
    TITLE "Can't Turn Back The Years (Live)"
    PERFORMER "Phil Collins"
    INDEX 01 13:34:47
  TRACK 04 AUDIO
    TITLE "Survivors (Live)"
    PERFORMER "Phil Collins"
    INDEX 01 20:29:33
  TRACK 05 AUDIO
    TITLE "Everyday (Live)"
    PERFORMER "Phil Collins"
    INDEX 01 27:11:63
  TRACK 06 AUDIO
    TITLE "We Wait And We Wonder (Live)"
    PERFORMER "Phil Collins"
    INDEX 01 33:15:58
  TRACK 07 AUDIO
    TITLE "Can't Find My Way (Demo)"
    PERFORMER "Phil Collins"
    INDEX 01 40:58:57
  TRACK 08 AUDIO
    TITLE "I've Been Trying "
    PERFORMER "Phil Collins"
    INDEX 01 45:47:27
  TRACK 09 AUDIO
    TITLE "Both Sides Of The Story (Paris Unplugged)"
    PERFORMER "Phil Collins"
    INDEX 01 50:48:42
  TRACK 10 AUDIO
    TITLE "Hero (Demo)"
    PERFORMER "Phil Collins"
    INDEX 01 56:09:08

Дополнительная информация:


Фил Коллинз пересматривает историю своей карьеры, которая включает более 100 миллионов проданных копий альбомов и огромное количество пластинок, ставших №1 во всем мире. Музыкант запускает ретроспективную кампанию, в рамках которой готовит переиздание 8 ремастированных альбомов. Проект стартовал 29 января, и начался с дебютного альбома Коллинса 1981 года – «Face Value», а также альбома 1993 года под названием «Both Sides». Коллекционный CD-бокссет, который уже включает в себя 2 первых альбома, выпущенных в этой серии (ремастированные и с бонусными дисками), с возможностью пополнять коллекцию по мере выхода новых релизов серии переизданий.
--
[Профиль] [ЛС]
Кто просматривает тему:

Показать сообщения:    

Текущее время: Сегодня 05:14

Часовой пояс: GMT



Вы не можете начинать темы
Вы не можете отвечать на сообщения
Вы не можете редактировать свои сообщения
Вы не можете удалять свои сообщения
Вы не можете голосовать в опросах
Вы не можете прикреплять файлы к сообщениям
Вы не можете скачивать файлы