(Hard Rock)Peter Criss - Collections (6CD) 1978 - 2007 [FLAC,Ape, image +.cue, lossless]

 
Автор Сообщение

sergej644 ®

Пол:

Стаж: 4 года 11 месяцев

Сообщений: 6043

Откуда: Soviet Union



Награды: Нет

Торрент-статистика

Создавать темы 29-Авг-2016 21:12

[Цитировать]

-Peter Criss - Collections (6CD) 1978 - 2007--
Год издания: 1978 - 2007
Страна: USA
Жанр: Hard Rock
Продолжительность: 03:49:39-Формат: FLAC, Ape
Битрейт аудио: Lossless
Тип рипа: image +.cue
Наличие сканов в содержимом раздачи: да
-

1978 - Peter Criss (The Remasters 1997) || 00:35:13


Лейбл издания: Mercury
Страна-выпуска диска: USA
Номер по каталогу: 532 386-2-Формат: FLAC
Битрейт аудио: Lossless
Тип рипа: image +.cue


01. I'm Gonna Love You (03:19)
02. You Matter To Me (03:18)
03. Tossin' And Turnin' (04:03)
04. Don't You Let Me Down (03:44)
05. That's The Kind Of Sugar Papa Likes (03:03)
06. Easy Thing (03:56)
07. Rock Me, Baby (02:56)
08. KISS The Girl Goodbye (02:49)
09. Hooked On Rock 'N' Roll (03:39)
10. I Can't Stop The Rain (04:27)

Лог создания рипа

Exact Audio Copy V1.0 beta 3 from 29. August 2011
Отчёт EAC об извлечении, выполненном 14. июля 2013, 15:38
Kiss / Peter Criss (The Remasters 1997)
Дисковод: HL-DT-STDVDRAM GH20NS10   Adapter: 0  ID: 1
Режим чтения                 : Достоверность
Использование точного потока : Да
Отключение кэша аудио        : Да
Использование указателей C2  : Нет
Коррекция смещения при чтении                     : 667
Способность читать области Lead-in и Lead-out     : Нет
Заполнение пропущенных сэмплов тишиной            : Да
Удаление блоков с тишиной в начале и конце        : Нет
При вычислениях CRC использовались нулевые сэмплы : Да
Интерфейс                                         : Встроенный Win32-интерфейс для Win NT/2000
Выходной формат : Внутренние WAV-операции
Формат сэмплов  : 44.100 Гц; 16 бит; стерео
TOC извлечённого CD
     Трек |   Старт  | Длительность | Начальный сектор | Конечный сектор
    ---------------------------------------------------------------------
       1  |  0:00.00 |    3:19.37   |           0      |      14961
       2  |  3:19.37 |    3:17.58   |       14962      |      29794
       3  |  6:37.20 |    4:03.07   |       29795      |      48026
       4  | 10:40.27 |    3:43.40   |       48027      |      64791
       5  | 14:23.67 |    3:02.53   |       64792      |      78494
       6  | 17:26.45 |    3:55.52   |       78495      |      96171
       7  | 21:22.22 |    2:55.40   |       96172      |     109336
       8  | 24:17.62 |    2:48.45   |      109337      |     121981
       9  | 27:06.32 |    3:39.28   |      121982      |     138434
      10  | 30:45.60 |    4:26.65   |      138435      |     158449
Характеристики диапазона извлечения и сообщения об ошибках
Выбранный диапазон
     Имя файла C:\rwa12\Kiss - Peter Criss (The Remasters 1997).wav
     Пиковый уровень 100.0 %
     Скорость извлечения 7.2 X
     Качество диапазона 100.0 %
     CRC теста 79B49534
     CRC копии 79B49534
     Копирование... OK
Ошибок не произошло
AccurateRip: сводка
Трек  1  : извлечено точно (доверие 3)  [52AB82FF]  (AR v1)
Трек  2  : извлечено точно (доверие 3)  [0ECE54E5]  (AR v1)
Трек  3  : извлечено точно (доверие 3)  [E3778AFC]  (AR v1)
Трек  4  : извлечено точно (доверие 3)  [4BA21ABE]  (AR v1)
Трек  5  : извлечено точно (доверие 3)  [C5346E15]  (AR v1)
Трек  6  : извлечено точно (доверие 3)  [E135096B]  (AR v1)
Трек  7  : извлечено точно (доверие 3)  [592412BB]  (AR v1)
Трек  8  : извлечено точно (доверие 3)  [E2971536]  (AR v1)
Трек  9  : извлечено точно (доверие 3)  [C2762C1C]  (AR v1)
Трек 10  : извлечено точно (доверие 3)  [4D150A55]  (AR v1)
Все треки извлечены точно
Конец отчёта

Индексная карта (non-compilant .cue)

REM GENRE Rock
REM DATE 1978
REM DISCID 8D08400A
REM COMMENT "ExactAudioCopy v1.0b3"
PERFORMER "Kiss"
TITLE "Peter Criss (The Remasters 1997)"
FILE "Kiss - Peter Criss (The Remasters 1997).flac" WAVE
  TRACK 01 AUDIO
    TITLE "I'm Gonna Love You"
    PERFORMER "Kiss"
    INDEX 01 00:00:00
  TRACK 02 AUDIO
    TITLE "You Matter To Me"
    PERFORMER "Kiss"
    INDEX 01 03:19:37
  TRACK 03 AUDIO
    TITLE "Tossin' And Turnin'"
    PERFORMER "Kiss"
    INDEX 01 06:37:20
  TRACK 04 AUDIO
    TITLE "Don't You Let Me Down"
    PERFORMER "Kiss"
    INDEX 00 10:39:12
    INDEX 01 10:40:27
  TRACK 05 AUDIO
    TITLE "That's The Kind Of Sugar Papa Likes"
    PERFORMER "Kiss"
    INDEX 01 14:23:67
  TRACK 06 AUDIO
    TITLE "Easy Thing"
    PERFORMER "Kiss"
    INDEX 01 17:26:45
  TRACK 07 AUDIO
    TITLE "Rock Me, Baby"
    PERFORMER "Kiss"
    INDEX 00 21:21:15
    INDEX 01 21:22:22
  TRACK 08 AUDIO
    TITLE "KISS The Girl Goodbye"
    PERFORMER "Kiss"
    INDEX 00 24:16:10
    INDEX 01 24:17:62
  TRACK 09 AUDIO
    TITLE "Hooked On Rock 'N' Roll"
    PERFORMER "Kiss"
    INDEX 00 27:05:20
    INDEX 01 27:06:32
  TRACK 10 AUDIO
    TITLE "I Can't Stop The Rain"
    PERFORMER "Kiss"
    INDEX 00 30:44:52
    INDEX 01 30:45:60

1980 - Out Of Control || 00:38:59


Лейбл издания: Mercury
Страна-выпуска диска: USA
Номер по каталогу: 314 558 071-2-Формат: Ape
Битрейт аудио: Lossless
Тип рипа: image +.cue


01. By Myself (03:39)
02. In Trouble Again (03:24)
03. Where Will They Run (03:56)
04. I Found Love (03:32)
05. There's Nothing Better (03:36)
06. Out Of Control (04:06)
07. Words (04:46)
08. You Better Run (02:45)
09. My Life (03:45)
10. Feel Like Letting Go (05:14)
11. A Kiss Is Still A Kiss (00:17)

Лог создания рипа

Отчёт EAC об извлечении, выполненном 10. октября 2007, 0:11 для диска:
Peter Criss / Out Of Control
Дисковод: HL-DT-STDVDRAM GSA-4163B   Adapter: 3  ID: 1
Режим чтения: Достоверный (C2: нет, Точный поток: да, Отключение кэша: да)
Коррекция смещения при чтении: 667
Способность читать области Lead-in и Lead-out : Нет
Выходной формат: Внутренние WAV-операции
                     44.100 Гц; 16 бит; стерео
Другие параметры:
    Заполнение пропущенных сэмплов тишиной : Да
    Удаление блоков с тишиной в начале и конце : Нет
    Встроенный Win32-интерфейс для Win NT/2000
Характеристики диапазона извлечения и сообщения об ошибках
Выбранный диапазон
     Имя файла E:\Lossless\Peter Criss-Out Of Control-1980\Peter Criss - Out Of Control.wav
     Пиковый уровень 100.0 %
     Качество диапазона 100.0 %
     CRC BEAD32CA
     Копирование... OK
Ошибок не произошло
Конец отчёта

Индексная карта (non-compilant .cue)

REM GENRE Rock
REM DATE 1980
REM DISCID 7B09230B
REM COMMENT "ExactAudioCopy v0.95b4"
PERFORMER "Peter Criss"
TITLE "Out Of Control"
FILE "Peter Criss - Out Of Control.ape" WAVE
  TRACK 01 AUDIO
    TITLE "By Myself"
    PERFORMER "Peter Criss"
    INDEX 01 00:00:00
  TRACK 02 AUDIO
    TITLE "In Trouble Again"
    PERFORMER "Peter Criss"
    INDEX 01 03:38:62
  TRACK 03 AUDIO
    TITLE "Where Will They Run"
    PERFORMER "Peter Criss"
    INDEX 01 07:02:74
  TRACK 04 AUDIO
    TITLE "I Found Love"
    PERFORMER "Peter Criss"
    INDEX 01 10:59:01
  TRACK 05 AUDIO
    TITLE "There's Nothing Better"
    PERFORMER "Peter Criss"
    INDEX 01 14:31:03
  TRACK 06 AUDIO
    TITLE "Out Of Control"
    PERFORMER "Peter Criss"
    INDEX 01 18:07:25
  TRACK 07 AUDIO
    TITLE "Words"
    PERFORMER "Peter Criss"
    INDEX 01 22:12:69
  TRACK 08 AUDIO
    TITLE "You Better Run"
    PERFORMER "Peter Criss"
    INDEX 01 26:59:19
  TRACK 09 AUDIO
    TITLE "My Life"
    PERFORMER "Peter Criss"
    INDEX 01 29:44:11
  TRACK 10 AUDIO
    TITLE "Feel Like Letting Go"
    PERFORMER "Peter Criss"
    INDEX 01 33:29:08
  TRACK 11 AUDIO
    TITLE "A Kiss Is Still A Kiss"
    PERFORMER "Peter Criss"
    INDEX 01 38:42:60

1982 - Let Me Rock You || 00:38:04


Лейбл издания: Mercury
Страна-выпуска диска: USA
Номер по каталогу: 314 558 072-2-Формат: FLAC
Битрейт аудио: Lossless
Тип рипа: image +.cue


01. Let It Go (04:05)
02. Tears (03:36)
03. Move On Over (03:48)
04. Jealous Guy (03:58)
05. Destiny (04:11)
06. Some Kinda' Hurricane (04:04)
07. Let Me Rock You (03:37)
08. First Day In The Rain (03:32)
09. Feel Like Heaven (03:43)
10. Bad Boys (03:29)

Лог создания рипа

Exact Audio Copy V1.0 beta 2 from 29. April 2011
Отчёт EAC об извлечении, выполненном 13. сентября 2011, 19:12
Peter Criss / Let Me Rock You
Дисковод: ATAPI   iHAS120   6   Adapter: 2  ID: 0
Режим чтения                 : Достоверность
Использование точного потока : Да
Отключение кэша аудио        : Да
Использование указателей C2  : Нет
Коррекция смещения при чтении                     : 6
Способность читать области Lead-in и Lead-out     : Нет
Заполнение пропущенных сэмплов тишиной            : Да
Удаление блоков с тишиной в начале и конце        : Нет
При вычислениях CRC использовались нулевые сэмплы : Да
Интерфейс                                         : Установленный внешний ASPI-интерфейс
Выходной формат : Внутренние WAV-операции
Формат сэмплов  : 44.100 Гц; 16 бит; стерео
TOC извлечённого CD
     Трек |   Старт  | Длительность | Начальный сектор | Конечный сектор
    ---------------------------------------------------------------------
       1  |  0:00.32 |    4:05.00   |          32      |      18406
       2  |  4:05.32 |    3:36.18   |       18407      |      34624
       3  |  7:41.50 |    3:48.15   |       34625      |      51739
       4  | 11:29.65 |    3:58.27   |       51740      |      69616
       5  | 15:28.17 |    4:11.05   |       69617      |      88446
       6  | 19:39.22 |    4:04.18   |       88447      |     106764
       7  | 23:43.40 |    3:37.00   |      106765      |     123039
       8  | 27:20.40 |    3:32.10   |      123040      |     138949
       9  | 30:52.50 |    3:43.35   |      138950      |     155709
      10  | 34:36.10 |    3:28.57   |      155710      |     171366
Характеристики диапазона извлечения и сообщения об ошибках
Выбранный диапазон
     Имя файла C:\Игорь\Peter Criss - Let Me Rock You\Peter Criss - Let Me Rock You.wav
     Пиковый уровень 100.0 %
     Скорость извлечения 5.3 X
     Качество диапазона 100.0 %
     CRC теста C1EAA93A
     CRC копии C1EAA93A
     Копирование... OK
Ошибок не произошло
AccurateRip: сводка
Трек  1  отсутствует в базе данных
Трек  2  отсутствует в базе данных
Трек  3  отсутствует в базе данных
Трек  4  отсутствует в базе данных
Трек  5  отсутствует в базе данных
Трек  6  отсутствует в базе данных
Трек  7  отсутствует в базе данных
Трек  8  отсутствует в базе данных
Трек  9  отсутствует в базе данных
Трек 10  отсутствует в базе данных
Ни одного трека нет в базе AccurateRip
Конец отчёта

Индексная карта (non-compilant .cue)

REM GENRE "Hard Rock"
REM DATE 1982
REM DISCID 7F08EC0A
REM COMMENT "ExactAudioCopy v1.0b2"
PERFORMER "Peter Criss"
TITLE "Let Me Rock You"
FILE "Peter Criss - Let Me Rock You.flac" WAVE
  TRACK 01 AUDIO
    TITLE "Let It Go"
    PERFORMER "Peter Criss"
    INDEX 00 00:00:00
    INDEX 01 00:00:32
  TRACK 02 AUDIO
    TITLE "Tears"
    PERFORMER "Peter Criss"
    INDEX 00 04:00:30
    INDEX 01 04:05:32
  TRACK 03 AUDIO
    TITLE "Move On Over"
    PERFORMER "Peter Criss"
    INDEX 00 07:37:62
    INDEX 01 07:41:50
  TRACK 04 AUDIO
    TITLE "Jealous Guy"
    PERFORMER "Peter Criss"
    INDEX 00 11:26:00
    INDEX 01 11:29:65
  TRACK 05 AUDIO
    TITLE "Destiny"
    PERFORMER "Peter Criss"
    INDEX 00 15:24:67
    INDEX 01 15:28:17
  TRACK 06 AUDIO
    TITLE "Some Kinda' Hurricane"
    PERFORMER "Peter Criss"
    INDEX 00 19:36:45
    INDEX 01 19:39:22
  TRACK 07 AUDIO
    TITLE "Let Me Rock You"
    PERFORMER "Peter Criss"
    INDEX 00 23:38:17
    INDEX 01 23:43:40
  TRACK 08 AUDIO
    TITLE "First Day In The Rain"
    PERFORMER "Peter Criss"
    INDEX 00 27:15:70
    INDEX 01 27:20:40
  TRACK 09 AUDIO
    TITLE "Feel Like Heaven"
    PERFORMER "Peter Criss"
    INDEX 00 30:48:39
    INDEX 01 30:52:50
  TRACK 10 AUDIO
    TITLE "Bad Boys"
    PERFORMER "Peter Criss"
    INDEX 00 34:32:37
    INDEX 01 34:36:10

1993 - Criss (EP) || 00:19:16


Лейбл издания: Tony Nicole Tony Records
Страна-выпуска диска: USA
Номер по каталогу: 004-2SE-Формат: Ape
Битрейт аудио: Lossless
Тип рипа: image +.cue


01. The Cat (04:37)
02. Show Me (04:05)
03. Good Times (04:37)
04. What You're Doin' (03:09)
05. Beth (02:48)

Лог создания рипа

Exact Audio Copy V0.99 prebeta 4 from 23. January 2008
Отчёт EAC об извлечении, выполненном 25. января 2009, 17:24
Criss / Criss
Дисковод: TSSTcorpCD/DVDW SH-S182D   Adapter: 0  ID: 0
Режим чтения                 : Достоверность
Использование точного потока : Да
Отключение кэша аудио        : Да
Использование указателей C2  : Нет
Коррекция смещения при чтении                     : 6
Способность читать области Lead-in и Lead-out     : Нет
Заполнение пропущенных сэмплов тишиной            : Да
Удаление блоков с тишиной в начале и конце        : Нет
При вычислениях CRC использовались нулевые сэмплы : Да
Интерфейс                                         : Установленный внешний ASPI-интерфейс
Выходной формат : Внутренние WAV-операции
Формат сэмплов  : 44.100 Гц; 16 бит; стерео
TOC извлечённого CD
     Трек |   Старт  | Длительность | Начальный сектор | Конечный сектор
    ---------------------------------------------------------------------
       1  |  0:00.00 |    4:36.50   |           0      |      20749
       2  |  4:36.50 |    4:05.12   |       20750      |      39136
       3  |  8:41.62 |    4:37.30   |       39137      |      59941
       4  | 13:19.17 |    3:09.28   |       59942      |      74144
       5  | 16:28.45 |    2:47.57   |       74145      |      86726
Характеристики диапазона извлечения и сообщения об ошибках
Выбранный диапазон
     Имя файла C:\rip\Criss - Criss.wav
     Пиковый уровень 95.4 %
     Качество диапазона 100.0 %
     CRC копии BAF0F217
     Копирование... OK
Ошибок не произошло
AccurateRip: сводка
Трек  1  точное извлечение (доверие 1)  [5F5E8FAA]
Трек  2  точное извлечение (доверие 1)  [83E163FE]
Трек  3  точное извлечение (доверие 1)  [A6BF6F73]
Трек  4  точное извлечение (доверие 1)  [D30EBB2E]
Трек  5  точное извлечение (доверие 1)  [B6ABD77D]
Все треки извлечены точно
Конец отчёта

Индексная карта (non-compilant .cue)

REM GENRE "Hard Rock"
REM DATE 1993
REM DISCID 38048405
REM COMMENT "ExactAudioCopy v0.99pb4"
PERFORMER "Criss"
TITLE "Criss"
FILE "Criss - Criss.ape" WAVE
  TRACK 01 AUDIO
    TITLE "The Cat"
    PERFORMER "Criss"
    INDEX 01 00:00:00
  TRACK 02 AUDIO
    TITLE "Show Me"
    PERFORMER "Criss"
    INDEX 00 04:34:42
    INDEX 01 04:36:50
  TRACK 03 AUDIO
    TITLE "Good Times"
    PERFORMER "Criss"
    INDEX 00 08:40:35
    INDEX 01 08:41:62
  TRACK 04 AUDIO
    TITLE "What You're Doin'"
    PERFORMER "Criss"
    INDEX 00 13:17:62
    INDEX 01 13:19:17
  TRACK 05 AUDIO
    TITLE "Beth"
    PERFORMER "Criss"
    INDEX 00 16:26:30
    INDEX 01 16:28:45

1994 - Criss - Cat #1 || 00:47:25


Лейбл издания: Tony Nicole Tony Records
Страна-выпуска диска: USA
Номер по каталогу: 0004-2-Формат: Ape
Битрейт аудио: Lossless
Тип рипа: image +.cue


01. Bad Attitude (04:36)
02. Walk The Line (03:51)
03. The Truth (04:57)
04. Bad People Burn In Hell (03:48)
05. Show Me (04:06)
06. Good Times (04:38)
07. Strike (04:47)
08. Blue Moon Over Brooklyn (05:25)
09. Down With The Sun (04:39)
10. We Want You (03:50)
11. Beth (02:47)

Лог создания рипа

EAC extraction logfile from 17. August 2007, 4:06 for CD
Peter Criss / Criss Cat #1
Used drive  : PLEXTOR CD-R   PREMIUM2   Adapter: 1  ID: 0
Read mode   : Secure with C2, accurate stream, disable cache
Combined read/write offset correction : 30
Overread into Lead-In and Lead-Out : Yes
Used output format : Internal WAV Routines
                     44.100 Hz; 16 Bit; Stereo
Other options      :
    Fill up missing offset samples with silence : Yes
    Delete leading and trailing silent blocks : No
    Native Win32 interface for Win NT & 2000
Range status and errors
Selected range
     Filename C:\EAC SECURE\CRISS CAT #1\Peter Criss - Criss Cat #1.wav
     Peak level 100.0 %
     Range quality 99.9 %
     CRC 13BA2196
     Copy OK
No errors occured
End of status report

Индексная карта (non-compilant .cue)

REM GENRE Rock
REM DATE 1994
REM DISCID 9B0B1D0B
REM COMMENT "ExactAudioCopy v0.95b4"
PERFORMER "Peter Criss"
TITLE "Criss Cat #1"
FILE "Peter Criss - Criss Cat #1.ape" WAVE
  TRACK 01 AUDIO
    TITLE "Bad Attitude"
    PERFORMER "Peter Criss"
    INDEX 01 00:00:00
  TRACK 02 AUDIO
    TITLE "Walk The Line"
    PERFORMER "Peter Criss"
    INDEX 00 04:34:44
    INDEX 01 04:36:37
  TRACK 03 AUDIO
    TITLE "The Truth"
    PERFORMER "Peter Criss"
    INDEX 00 08:25:36
    INDEX 01 08:27:21
  TRACK 04 AUDIO
    TITLE "Bad People Burn In Hell"
    PERFORMER "Peter Criss"
    INDEX 00 13:22:08
    INDEX 01 13:23:73
  TRACK 05 AUDIO
    TITLE "Show Me"
    PERFORMER "Peter Criss"
    INDEX 00 17:10:55
    INDEX 01 17:12:35
  TRACK 06 AUDIO
    TITLE "Good Times"
    PERFORMER "Peter Criss"
    INDEX 00 21:17:10
    INDEX 01 21:18:65
  TRACK 07 AUDIO
    TITLE "Strike"
    PERFORMER "Peter Criss"
    INDEX 01 25:56:72
  TRACK 08 AUDIO
    TITLE "Blue Moon Over Brooklyn"
    PERFORMER "Peter Criss"
    INDEX 00 30:42:00
    INDEX 01 30:43:46
  TRACK 09 AUDIO
    TITLE "Down With The Sun"
    PERFORMER "Peter Criss"
    INDEX 00 36:06:43
    INDEX 01 36:08:38
  TRACK 10 AUDIO
    TITLE "We Want You"
    PERFORMER "Peter Criss"
    INDEX 00 40:45:64
    INDEX 01 40:47:55
  TRACK 11 AUDIO
    TITLE "Beth"
    PERFORMER "Peter Criss"
    INDEX 00 44:35:69
    INDEX 01 44:37:60

2007 - One For All || 00:50:41


Лейбл издания: Silvercat Records
Страна-выпуска диска: USA
Номер по каталогу: n/a-Формат: Ape
Битрейт аудио: Lossless
Тип рипа: image +.cue


01. One for All (04:48)
02. Doesn't Get Better Than This (05:09)
03. Last Night (04:28)
04. What a Difference a Day Makes (04:25)
05. Hope (02:48)
06. Face in The Crowed (03:36)
07. Send in The Clowns (03:52)
08. Falling Over Again (04:42)
09. Whisper (04:16)
10. Heart Behind These Hands (03:39)
11. Memories (03:49)
12. Space Ace (05:10)

Лог создания рипа

Отчёт EAC об извлечении, выполненном 4. октября 2007, 23:02 для диска:
Peter Criss / One For All
Дисковод: PLEXTOR DVDR   PX-760A   Adapter: 0  ID: 0
Режим чтения: Достоверный (C2: нет, Точный поток: да, Отключение кэша: да)
Коррекция смещения при чтении: 30
Способность читать области Lead-in и Lead-out : Нет
Выходной формат: C:\Program Files\Monkey's Audio\MAC.exe   (Monkey's Audio (без потерь))
                     High Lossless Compression
Другие параметры:
    Заполнение пропущенных сэмплов тишиной : Да
    Удаление блоков с тишиной в начале и конце : Нет
    Установленный внешний ASPI-интерфейс
Характеристики диапазона извлечения и сообщения об ошибках
Выбранный диапазон
     Имя файла D:\MUSIC\Peter Criss - One For All.wav
     Пиковый уровень 100.0 %
     Качество диапазона 99.9 %
     CRC F3941EBA
     Копирование... OK
Ошибок не произошло
Конец отчёта

Индексная карта (non-compilant .cue)

REM GENRE Rock
REM DATE 2007
REM DISCID A80BE00C
REM COMMENT "ExactAudioCopy v0.95b4"
PERFORMER "Peter Criss"
TITLE "One For All"
FILE "Peter Criss - One For All.ape" WAVE
  TRACK 01 AUDIO
    TITLE "One for All"
    PERFORMER "Peter Criss"
    FLAGS DCP
    INDEX 01 00:00:00
  TRACK 02 AUDIO
    TITLE "Doesn't Get Better Than This"
    PERFORMER "Peter Criss"
    FLAGS DCP
    INDEX 01 04:47:46
  TRACK 03 AUDIO
    TITLE "Last Night"
    PERFORMER "Peter Criss"
    FLAGS DCP
    INDEX 01 09:56:11
  TRACK 04 AUDIO
    TITLE "What a Difference a Day Makes"
    PERFORMER "Peter Criss"
    FLAGS DCP
    INDEX 01 14:23:50
  TRACK 05 AUDIO
    TITLE "Hope"
    PERFORMER "Peter Criss"
    FLAGS DCP
    INDEX 01 18:48:40
  TRACK 06 AUDIO
    TITLE "Face in The Crowed"
    PERFORMER "Peter Criss"
    FLAGS DCP
    INDEX 01 21:36:07
  TRACK 07 AUDIO
    TITLE "Send in The Clowns"
    PERFORMER "Peter Criss"
    FLAGS DCP
    INDEX 01 25:12:19
  TRACK 08 AUDIO
    TITLE "Falling Over Again"
    PERFORMER "Peter Criss"
    FLAGS DCP
    INDEX 01 29:04:10
  TRACK 09 AUDIO
    TITLE "Whisper"
    PERFORMER "Peter Criss"
    FLAGS DCP
    INDEX 01 33:46:17
  TRACK 10 AUDIO
    TITLE "Heart Behind These Hands"
    PERFORMER "Peter Criss"
    FLAGS DCP
    INDEX 01 38:02:48
  TRACK 11 AUDIO
    TITLE "Memories"
    PERFORMER "Peter Criss"
    FLAGS DCP
    INDEX 01 41:41:74
  TRACK 12 AUDIO
    TITLE "Space Ace"
    PERFORMER "Peter Criss"
    FLAGS DCP
    INDEX 00 45:29:52
    INDEX 01 45:30:60
-

Дополнительная информация:

Питер Крисс (англ. Peter Criss; настоящее имя Джордж Питер Джон Крискуола, англ. George Peter John Criscuola; 20 декабря 1945, Бруклин) — американский музыкант, наиболее известный как ударник американской глэм-рок/метал-группы Kiss. Крисс придумал образ и грим «Кота» для своего участия в группе Kiss.
--
[Профиль] [ЛС]
Показать сообщения:    

Текущее время: Сегодня 04:22

Часовой пояс: GMT



Вы не можете начинать темы
Вы не можете отвечать на сообщения
Вы не можете редактировать свои сообщения
Вы не можете удалять свои сообщения
Вы не можете голосовать в опросах
Вы не можете прикреплять файлы к сообщениям
Вы не можете скачивать файлы