PBS Nova: Как построить колесницу фараона? / Building Pharaoh's Chariot [сезон 40 серия 10] (Мартин О'Коллинз / Martin O'Collins) [2013 г., Документальный, познавательный, история, HDTVRip 720p]

 
Автор Сообщение

skorpionN ®

Пол:

Стаж: 1 год 8 месяцев

Сообщений: 582



Награды: 4 (Подробнее)

Mega Seeder 1 (Количество: 1) Mega Seeder 2 (Количество: 1) Top Releaser 2 (Количество: 1)
Торрент-статистика

Создавать темы 29-Мар-2015 11:53

[Цитировать]

PBS Nova: Как построить колесницу фараона? / Building Pharaoh's Chariot [сезон 40 серия 10]
Год выпуска: 2013
Страна: США
Жанр: Документальный, познавательный, история
Продолжительность: 00:52:22
Перевод: Профессиональный (многоголосый, закадровый)
Режиссер: Мартин О'Коллинз / Martin O'Collins
В ролях: Demetri Goritsas, Stephen Harvey, Robert Hurford
Описание: Спустя тысячу лет после возведения Великих пирамид, в период Нового Царства в египетской армии произошла технологическая революция - появилась колесница, и военные завоевания позволили создать крупнейшую империю Древнего мира. Каким образом колесница стала ключом к военному успеху египтян? Международная команда экспертов воссоздает копию колесницы в Каире и проводит ее испытания в исторической реконструкции сражения.
Доп. информация: русская аудиодорожка позаимствована из SatRip Студия "Лексикон" по заказу ГТРК "Культура"
Качество: HDTVRip 720p
Формат: MKV
Видео кодек: H.264
Аудио кодек: AC3
Видео: 1280x720, 25fps, ~3100 kbps
Аудио: AC3 2ch, 48kHz, 192 kbps

Скриншоты


MediaInfo:

Format : Matroska
Format version : Version 4 / Version 2
File size : 1.23 GiB
Duration : 52mn 22s
Overall bit rate mode : Constant
Overall bit rate : 3 363 Kbps
Encoded date : UTC 2015-03-29 11:28:07
Writing application : mkvmerge v7.8.0 ('River Man') 64bit built on Mar 27 2015 16:31:37
Writing library : libebml v1.3.1 + libmatroska v1.4.2
DURATION : 00:52:22.204000000
NUMBER_OF_FRAMES : 94172
NUMBER_OF_BYTES : 1244601144
_STATISTICS_WRITING_APP : mkvmerge v7.8.0 ('River Man') 64bit built on Mar 27 2015 16:31:37
_STATISTICS_WRITING_DATE_UTC : 2015-03-29 11:28:07
_STATISTICS_TAGS : BPS DURATION NUMBER_OF_FRAMES NUMBER_OF_BYTES
Video
ID : 1
Format : AVC
Format/Info : Advanced Video Codec
Format profile : High@L3.1
Format settings, CABAC : Yes
Format settings, ReFrames : 3 frames
Codec ID : V_MPEG4/ISO/AVC
Duration : 52mn 22s
Bit rate mode : Constant
Bit rate : 3 104 Kbps
Nominal bit rate : 3 300 Kbps / 3 300 Kbps
Width : 1 280 pixels
Height : 720 pixels
Display aspect ratio : 16:9
Frame rate mode : Constant
Frame rate : 30.000 fps
Original frame rate : 29.970 fps
Standard : NTSC
Color space : YUV
Chroma subsampling : 4:2:0
Bit depth : 8 bits
Scan type : Progressive
Bits/(Pixel*Frame) : 0.112
Stream size : 1.14 GiB (92%)
Writing library : x264 core 114
Encoding settings : cabac=1 / ref=3 / deblock=1:0:0 / analyse=0x3:0x113 / me=hex / subme=7 / psy=1 / psy_rd=1.00:0.00 / mixed_ref=1 / me_range=16 / chroma_me=1 / trellis=1 / 8x8dct=1 / cqm=2 / deadzone=21,11 / fast_pskip=1 / chroma_qp_offset=-2 / threads=6 / sliced_threads=0 / slices=1 / nr=0 / decimate=1 / interlaced=0 / constrained_intra=0 / bframes=3 / b_pyramid=0 / b_adapt=1 / b_bias=0 / direct=1 / weightb=1 / open_gop=0 / weightp=2 / keyint=250 / keyint_min=25 / scenecut=40 / intra_refresh=0 / rc_lookahead=40 / rc=cbr / mbtree=1 / bitrate=3300 / ratetol=1.0 / qcomp=0.60 / qpmin=3 / qpmax=69 / qpstep=4 / vbv_maxrate=3300 / vbv_bufsize=3293 / nal_hrd=cbr / ip_ratio=1.40 / aq=1:1.00
Default : Yes
Forced : No
Color primaries : BT.709
Transfer characteristics : BT.709
Matrix coefficients : BT.709
Color range : Limited
Audio
ID : 2
Format : AC-3
Format/Info : Audio Coding 3
Mode extension : CM (complete main)
Format settings, Endianness : Big
Codec ID : A_AC3
Duration : 52mn 22s
Bit rate mode : Constant
Bit rate : 192 Kbps
Channel(s) : 2 channels
Channel positions : Front: L R
Sampling rate : 48.0 KHz
Bit depth : 16 bits
Compression mode : Lossy
Stream size : 71.9 MiB (6%)
Default : Yes
Forced : No


Последний раз редактировалось: skorpionN (2015-03-30 09:20), всего редактировалось 2 раз(а)
[Профиль] [ЛС]

KiruhaDelMar

Стаж: 1 год 8 месяцев

Сообщений: 246



Награды: Нет

Торрент-статистика

Создавать темы 29-Мар-2015 12:11 (спустя 18 минут)

[Цитировать]

таки так строят обычно дома
[Профиль] [ЛС]

skorpionN ®

Пол:

Стаж: 1 год 8 месяцев

Сообщений: 582



Награды: 4 (Подробнее)

Mega Seeder 2 (Количество: 1) Mega Seeder 1 (Количество: 1) Top Releaser 2 (Количество: 1)
Торрент-статистика

Создавать темы 29-Мар-2015 13:53 (спустя 1 час 41 минута)

[Цитировать]

Нут. Теперь ты уже не космонавт, а строитель. bt
[Профиль] [ЛС]

KiruhaDelMar

Стаж: 1 год 8 месяцев

Сообщений: 246



Награды: Нет

Торрент-статистика

Создавать темы 29-Мар-2015 14:20 (спустя 26 минут)

[Цитировать]

сезон 40 серия 10 ai 40 сезон чего ? и где остальное ?
[Профиль] [ЛС]
Показать сообщения:    

Текущее время: Сегодня 04:12

Часовой пояс: GMT



Вы не можете начинать темы
Вы не можете отвечать на сообщения
Вы не можете редактировать свои сообщения
Вы не можете удалять свои сообщения
Вы не можете голосовать в опросах
Вы не можете прикреплять файлы к сообщениям
Вы не можете скачивать файлы