PBS: Тайны Мертвых. Потерянные корабли Древнего Рима / Secrets of the Dead. Lost Ships of Rome [сезон 10 эпизод 3 ] (Роберт Хатэл / Robert Hartel) [2010 г., Документальный, исследование, история, HDTVRip 720p]

 
Author Message

skorpionN ®

Gender:

Longevity: 4 years 4 months

Posts: 944



: 4 ()

Top Releaser 2 (1) Mega Seeder 2 (1) Mega Seeder 1 (1)
Торрент-статистика

Post 11-Apr-2015 19:17

[Quote]

PBS: Тайны Мертвых. Потерянные корабли Древнего Рима / Secrets of the Dead. Lost Ships of Rome [сезон 10 эпизод 3 ]
Год выпуска: 2010
Страна: США, Windfall Films for Thirteen
Жанр: Документальный, исследование, история
Продолжительность: 00:45:12
Перевод: Профессиональный (одноголосый), АРК-ТВ - Текст - Игорь Тарадайкин
Доп. информация: русская дорожка позаимствована из SatRip
Режиссер: Роберт Хатэл / Robert Hartel
В ролях: Annelise Freisenbruch, Timmy Gambin, Armen Garo ...
Описание: Это Вентотене - крошечный итальянский остров в 70 км от Неаполитанского залива. Остров с темным и таинственным прошлым. Здесь была совершенна одна из самых удивительных археологических находок в истории новейшего времени. В 2009 г археолог Тимми Гамбин и его команда, проводили эхолокационное исследование морского дна. У его берегов на дне моря лежат останки 5 древнеримских кораблей. Через год в 2010 г, команда исследователей вернулась сюда, чтобы попытаться поднять со дна часть их груза и узнать что-то новое о жизни в Римской Империи. Тяжелые условия работы послужат хорошей проверкой их мужества, а также их оборудования. Эта экспедиция станет новым словом в археологии.
Качество: HDTVRip 720p
Формат: MKV
Видео кодек: H.264
Аудио кодек: AC3
Видео: 1280x720 29.97fps 4694 Kbps
Аудио: AC3, 2ch, 192 kbps, 48 kHz

Скриншоты


Скриншоты

MediaInfo:
Format : Matroska
Format version : Version 4 / Version 2
File size : 1.57 GiB
Duration : 45mn 11s
Overall bit rate mode : Constant
Overall bit rate : 4 985 Kbps
Encoded date : UTC 2015-04-11 18:58:58
Writing application : mkvmerge v7.8.0 ('River Man') 64bit built on Mar 27 2015 16:31:37
Writing library : libebml v1.3.1 + libmatroska v1.4.2
DURATION : 00:45:11.608000000
NUMBER_OF_FRAMES : 81267
NUMBER_OF_BYTES : 1623791576
_STATISTICS_WRITING_APP : mkvmerge v7.8.0 ('River Man') 64bit built on Mar 27 2015 16:31:37
_STATISTICS_WRITING_DATE_UTC : 2015-04-11 18:58:58
_STATISTICS_TAGS : BPS DURATION NUMBER_OF_FRAMES NUMBER_OF_BYTES
Video
ID : 1
Format : AVC
Format/Info : Advanced Video Codec
Format profile : High@L3.1
Format settings, CABAC : Yes
Format settings, ReFrames : 3 frames
Codec ID : V_MPEG4/ISO/AVC
Duration : 45mn 11s
Bit rate mode : Constant
Bit rate : 4 694 Kbps
Nominal bit rate : 5 000 Kbps / 5 000 Kbps
Width : 1 280 pixels
Height : 720 pixels
Display aspect ratio : 16:9
Frame rate mode : Constant
Frame rate : 30.000 fps
Original frame rate : 29.970 fps
Standard : NTSC
Color space : YUV
Chroma subsampling : 4:2:0
Bit depth : 8 bits
Scan type : Progressive
Bits/(Pixel*Frame) : 0.170
Stream size : 1.48 GiB (94%)
Writing library : x264 core 114
Encoding settings : cabac=1 / ref=3 / deblock=1:0:0 / analyse=0x3:0x113 / me=hex / subme=7 / psy=1 / psy_rd=1.00:0.00 / mixed_ref=1 / me_range=16 / chroma_me=1 / trellis=1 / 8x8dct=1 / cqm=2 / deadzone=21,11 / fast_pskip=1 / chroma_qp_offset=-2 / threads=6 / sliced_threads=0 / slices=1 / nr=0 / decimate=1 / interlaced=0 / constrained_intra=0 / bframes=3 / b_pyramid=0 / b_adapt=1 / b_bias=0 / direct=1 / weightb=1 / open_gop=0 / weightp=2 / keyint=250 / keyint_min=25 / scenecut=40 / intra_refresh=0 / rc_lookahead=40 / rc=cbr / mbtree=1 / bitrate=5000 / ratetol=1.0 / qcomp=0.60 / qpmin=3 / qpmax=69 / qpstep=4 / vbv_maxrate=5000 / vbv_bufsize=4997 / nal_hrd=cbr / ip_ratio=1.40 / aq=1:1.00
Default : Yes
Forced : No
Color primaries : BT.709
Transfer characteristics : BT.709
Matrix coefficients : BT.709
Color range : Limited
Audio
ID : 2
Format : AC-3
Format/Info : Audio Coding 3
Mode extension : CM (complete main)
Format settings, Endianness : Big
Codec ID : A_AC3
Duration : 45mn 11s
Bit rate mode : Constant
Bit rate : 192 Kbps
Channel(s) : 2 channels
Channel positions : Front: L R
Sampling rate : 48.0 KHz
Bit depth : 16 bits
Compression mode : Lossy
Stream size : 62.1 MiB (4%)
Default : Yes
Forced : No
PBS: Тайны Мертвых. Потерянные корабли Древнего Рима
PBS: Тайны Мертвых. Потерянные воины Карфагена
PBS: Тайны Мертвых. Загадка серебряного фараона
PBS: Тайны Мертвых. Затерянный в Амазонке
PBS: Тайны Мертвых. Человек, который спас мир
[Profile] [PM]
Кто просматривает тему:

Display posts from previous:    

The time now is: Today 08:58

All times are GMT



You cannot post new topics in this forum
You cannot reply to topics in this forum
You cannot edit your posts in this forum
You cannot delete your posts in this forum
You cannot vote in polls in this forum
You cannot attach files in this forum
You cannot download files in this forum