PBS: Тайны Мертвых. Затерянный в Амазонке / Secrets of the Dead. Lost in the Amazon [сезон 11 эпизод 1 ] (Петер Вон Путткамер / Peter Von Puttkamer) [2011 г., Документальный, познавательный, история, исследование, HDTVRip 720p]

 
Author Message

skorpionN ®

Gender:

Longevity: 5 years

Posts: 944



: 4 ()

Mega Seeder 1 (1) Mega Seeder 2 (1) Top Releaser 2 (1)
Торрент-статистика

Post 19-Apr-2015 20:45

[Quote]

PBS: Тайны Мертвых. Затерянный в Амазонке / Secrets of the Dead. Lost in the Amazon [сезон 11 эпизод 1 ]
Год выпуска: 2011
Страна: Канада, Великобритания, Lost World Films Limited for Thirteen
Жанр: Документальный, познавательный, история, исследование
Продолжительность: 00:52:14
Перевод: Профессиональный (одноголосый), переведено и озвучено на студии "SDI Media" перевод Вячеслава Козлова, текст читает Роман Антанович
Доп. информация: русская дорожка позаимствована из SatRip
Режиссер: Петер Вон Путткамер / Peter Von Puttkamer
В ролях: Liev Schreiber, Don Antonio, Rolette de Montet-Guerin
Описание: История знаменитого исследователя полковника Перси Фосетта окутана живыми легендами о его приключениях, гибели и загадочном исчезновении из экспедиции в поисках затерянного города «Z» в 1925 году. Цель этого современного исследования – установить, что произошло с полковником в тот год, и как его открытия повлияли на представления экспертов о самой большой реке в мире – Амазонке, и народах, населяющих Америку доколумбовой эпохи...
Качество: HDTVRip 720p
Формат: MKV
Видео кодек: H.264
Аудио кодек: AC3
Видео: 1280x720 29.970fps 3756 Kbps
Аудио: AC3, 2ch, 192 kbps, 48 kHz

Скриншоты


MediaInfo:

Format : Matroska
Format version : Version 4 / Version 2
File size : 1.47 GiB
Duration : 52mn 14s
Overall bit rate mode : Constant
Overall bit rate : 4 028 Kbps
Encoded date : UTC 2015-04-19 18:48:46
Writing application : mkvmerge v7.8.0 ('River Man') 64bit built on Mar 27 2015 16:31:37
Writing library : libebml v1.3.1 + libmatroska v1.4.2
DURATION : 00:52:14.017000000
NUMBER_OF_FRAMES : 93926
NUMBER_OF_BYTES : 1502018126
_STATISTICS_WRITING_APP : mkvmerge v7.8.0 ('River Man') 64bit built on Mar 27 2015 16:31:37
_STATISTICS_WRITING_DATE_UTC : 2015-04-19 18:48:46
_STATISTICS_TAGS : BPS DURATION NUMBER_OF_FRAMES NUMBER_OF_BYTES
Video
ID : 1
Format : AVC
Format/Info : Advanced Video Codec
Format profile : High@L3.1
Format settings, CABAC : Yes
Format settings, ReFrames : 3 frames
Codec ID : V_MPEG4/ISO/AVC
Duration : 52mn 14s
Bit rate mode : Constant
Bit rate : 3 756 Kbps
Nominal bit rate : 4 000 Kbps / 4 000 Kbps
Width : 1 280 pixels
Height : 720 pixels
Display aspect ratio : 16:9
Frame rate mode : Constant
Frame rate : 30.000 fps
Original frame rate : 29.970 fps
Standard : NTSC
Color space : YUV
Chroma subsampling : 4:2:0
Bit depth : 8 bits
Scan type : Progressive
Bits/(Pixel*Frame) : 0.136
Stream size : 1.37 GiB (93%)
Writing library : x264 core 114
Encoding settings : cabac=1 / ref=3 / deblock=1:0:0 / analyse=0x3:0x113 / me=hex / subme=7 / psy=1 / psy_rd=1.00:0.00 / mixed_ref=1 / me_range=16 / chroma_me=1 / trellis=1 / 8x8dct=1 / cqm=2 / deadzone=21,11 / fast_pskip=1 / chroma_qp_offset=-2 / threads=6 / sliced_threads=0 / slices=1 / nr=0 / decimate=1 / interlaced=0 / constrained_intra=0 / bframes=3 / b_pyramid=0 / b_adapt=1 / b_bias=0 / direct=1 / weightb=1 / open_gop=0 / weightp=2 / keyint=250 / keyint_min=25 / scenecut=40 / intra_refresh=0 / rc_lookahead=40 / rc=cbr / mbtree=1 / bitrate=4000 / ratetol=1.0 / qcomp=0.60 / qpmin=3 / qpmax=69 / qpstep=4 / vbv_maxrate=4000 / vbv_bufsize=3997 / nal_hrd=cbr / ip_ratio=1.40 / aq=1:1.00
Default : Yes
Forced : No
Color primaries : BT.709
Transfer characteristics : BT.709
Matrix coefficients : BT.709
Color range : Limited
Audio
ID : 2
Format : AC-3
Format/Info : Audio Coding 3
Mode extension : CM (complete main)
Format settings, Endianness : Big
Codec ID : A_AC3
Duration : 52mn 14s
Bit rate mode : Constant
Bit rate : 192 Kbps
Channel(s) : 2 channels
Channel positions : Front: L R
Sampling rate : 48.0 KHz
Bit depth : 16 bits
Compression mode : Lossy
Stream size : 71.7 MiB (5%)
Default : Yes
Forced : No
PBS: Тайны Мертвых. Потерянные корабли Древнего Рима
PBS: Тайны Мертвых. Потерянные воины Карфагена
PBS: Тайны Мертвых. Загадка серебряного фараона
PBS: Тайны Мертвых. Затерянный в Амазонке
PBS: Тайны Мертвых. Человек, который спас мир
[Profile] [PM]
Кто просматривает тему:

Display posts from previous:    

The time now is: Today 07:42

All times are GMT



You cannot post new topics in this forum
You cannot reply to topics in this forum
You cannot edit your posts in this forum
You cannot delete your posts in this forum
You cannot vote in polls in this forum
You cannot attach files in this forum
You cannot download files in this forum