PBS: Тайны Мертвых. Загадка серебряного фараона / Secrets of the Dead. The Silver Pharaoh [сезон 10 эпизод 1 ] (Энди Вебб / Andy Webb) [2010 г., Документальный, научно-познавательный, история, археология, исследование, HDTVRip 720p]

 
Автор Сообщение

skorpionN ®

Пол:

Стаж: 1 год 8 месяцев

Сообщений: 586



Награды: 4 (Подробнее)

Mega Seeder 3 (Количество: 1) Mega Seeder 1 (Количество: 1) Mega Seeder 2 (Количество: 1)
Торрент-статистика

Создавать темы 18-Апр-2015 16:58

[Цитировать]

PBS: Тайны Мертвых. Загадка серебряного фараона / Secrets of the Dead. The Silver Pharaoh [сезон 10 эпизод 1 ]
Год выпуска: 2010
Страна: США, Великобритания, WNET.ORG and Blink Films Productions for Thirteen
Жанр: Документальный, научно-познавательный, история, археология, исследование
Продолжительность: 00:44:58
Перевод: Профессиональный (одноголосый), озвучено на студии АРК-ТВ - текст читал - Александр Коврижных
Доп. информация: русская дорожка позаимствована из SatRip
Режиссер: Энди Вебб / Andy Webb
В ролях: Melissa Dring, Yasmin El Shazly, King Faroukh
Описание: Посетите гробницу Псусеннеса I, мало известного египетского фараона, похороненного в гробу из серебра в окружении поразительных сокровищ. Это одна из величайших археологических находок всех времен. Единственная нетронутая гробница египетского фараона, чьи сокровища сравнимы с сокровищами знаменитого Тутанхамона. Эта находка может пролить свет на одну из самых мрачных эпох в истории Древнего Египта. Но возможно вы даже и не слышали о ней. сегодня эти артефакты и сокровища изучают заново и проводят повторную экспертизу останков фараона. Все наши прежние предположения могут быть отброшены, когда мы входим в гробницу серебряного фараона..
Качество: HDTVRip 720p
Формат: MKV
Видео кодек: H.264
Аудио кодек: AC3
Видео: 1280x720 25.00fps 4000 Kbps
Аудио: AC3, 2ch, 192 kbps, 48 kHz

Скриншоты


MediaInfo:

Format : Matroska
Format version : Version 4 / Version 2
File size : 1.31 GiB
Duration : 44mn 58s
Overall bit rate mode : Variable
Overall bit rate : 4 180 Kbps
Encoded date : UTC 2015-04-18 16:13:42
Writing application : mkvmerge v7.8.0 ('River Man') 64bit built on Mar 27 2015 16:31:37
Writing library : libebml v1.3.1 + libmatroska v1.4.2
DURATION : 00:44:58.239000000
NUMBER_OF_FRAMES : 67456
NUMBER_OF_BYTES : 1344288944
_STATISTICS_WRITING_APP : mkvmerge v7.8.0 ('River Man') 64bit built on Mar 27 2015 16:31:37
_STATISTICS_WRITING_DATE_UTC : 2015-04-18 16:13:42
_STATISTICS_TAGS : BPS DURATION NUMBER_OF_FRAMES NUMBER_OF_BYTES
Video
ID : 1
Format : AVC
Format/Info : Advanced Video Codec
Format profile : High@L3.1
Format settings, CABAC : Yes
Format settings, ReFrames : 3 frames
Codec ID : V_MPEG4/ISO/AVC
Duration : 44mn 58s
Bit rate mode : Variable
Bit rate : 4 000 Kbps
Maximum bit rate : 8 000 Kbps
Width : 1 280 pixels
Height : 720 pixels
Display aspect ratio : 16:9
Frame rate mode : Constant
Frame rate : 25.000 fps
Standard : NTSC
Color space : YUV
Chroma subsampling : 4:2:0
Bit depth : 8 bits
Scan type : Progressive
Bits/(Pixel*Frame) : 0.174
Stream size : 1.23 GiB (93%)
Writing library : x264 core 114
Encoding settings : cabac=1 / ref=3 / deblock=1:0:0 / analyse=0x3:0x113 / me=hex / subme=7 / psy=1 / psy_rd=1.00:0.00 / mixed_ref=1 / me_range=16 / chroma_me=1 / trellis=1 / 8x8dct=1 / cqm=2 / deadzone=21,11 / fast_pskip=1 / chroma_qp_offset=-4 / threads=6 / sliced_threads=0 / slices=1 / nr=0 / decimate=1 / interlaced=0 / constrained_intra=0 / bframes=3 / b_pyramid=0 / b_adapt=1 / b_bias=0 / direct=1 / weightb=1 / open_gop=0 / weightp=2 / keyint=250 / keyint_min=25 / scenecut=40 / intra_refresh=0 / rc_lookahead=40 / rc=2pass / mbtree=1 / bitrate=4000 / ratetol=1.0 / qcomp=0.60 / qpmin=5 / qpmax=69 / qpstep=4 / cplxblur=20.0 / qblur=0.5 / vbv_maxrate=8000 / vbv_bufsize=7995 / nal_hrd=vbr / ip_ratio=1.40 / aq=1:1.00
Default : Yes
Forced : No
Color primaries : BT.709
Transfer characteristics : BT.709
Matrix coefficients : BT.709
Color range : Limited
Audio
ID : 2
Format : AC-3
Format/Info : Audio Coding 3
Mode extension : CM (complete main)
Format settings, Endianness : Big
Codec ID : A_AC3
Duration : 44mn 58s
Bit rate mode : Constant
Bit rate : 192 Kbps
Channel(s) : 2 channels
Channel positions : Front: L R
Sampling rate : 48.0 KHz
Bit depth : 16 bits
Compression mode : Lossy
Stream size : 61.8 MiB (5%)
Default : Yes
Forced : No
PBS: Тайны Мертвых. Потерянные корабли Древнего Рима
PBS: Тайны Мертвых. Потерянные воины Карфагена
PBS: Тайны Мертвых. Загадка серебряного фараона
PBS: Тайны Мертвых. Затерянный в Амазонке
PBS: Тайны Мертвых. Человек, который спас мир


Последний раз редактировалось: skorpionN (2015-04-22 08:22), всего редактировалось 8 раз(а)
[Профиль] [ЛС]

KiruhaDelMar

Стаж: 1 год 8 месяцев

Сообщений: 246



Награды: Нет

Торрент-статистика

Создавать темы 18-Апр-2015 17:00 (спустя 1 минута)

[Цитировать]

Писец
[Профиль] [ЛС]

skorpionN ®

Пол:

Стаж: 1 год 8 месяцев

Сообщений: 586



Награды: 4 (Подробнее)

Mega Seeder 2 (Количество: 1) Mega Seeder 1 (Количество: 1) Top Releaser 2 (Количество: 1)
Торрент-статистика

Создавать темы 18-Апр-2015 17:05 (спустя 5 минут)

[Цитировать]

И ты уже появился. От неугомонный. Иди винду переустанавливай hunter
[Профиль] [ЛС]

KiruhaDelMar

Стаж: 1 год 8 месяцев

Сообщений: 246



Награды: Нет

Торрент-статистика

Создавать темы 18-Апр-2015 17:21 (спустя 16 минут)

[Цитировать]

Ты когда покойников в покое оставишь ?
[Профиль] [ЛС]

skorpionN ®

Пол:

Стаж: 1 год 8 месяцев

Сообщений: 586



Награды: 4 (Подробнее)

Mega Seeder 1 (Количество: 1) Mega Seeder 2 (Количество: 1) Mega Seeder 3 (Количество: 1)
Торрент-статистика

Создавать темы 19-Апр-2015 18:59 (спустя 1 день 1 час)

[Цитировать]

На всех хватит. Сделаю нового покойничка
[Профиль] [ЛС]
Кто просматривает тему:

Показать сообщения:    

Текущее время: Сегодня 06:08

Часовой пояс: GMT



Вы не можете начинать темы
Вы не можете отвечать на сообщения
Вы не можете редактировать свои сообщения
Вы не можете удалять свои сообщения
Вы не можете голосовать в опросах
Вы не можете прикреплять файлы к сообщениям
Вы не можете скачивать файлы