PBS: Природа - Радиоактивные волки / PBS: Nature - Radioactive Wolves (Клаус Файтенбергер / Klaus Fajtenberger) [2011, документальный, BDRip] + original (Eng) + sub (Eng)

 
Автор Сообщение

reversefile ®

Пол:

Стаж: 4 года 5 месяцев

Сообщений: 842

Откуда: ReverseFile.org



Награды: Нет

Торрент-статистика

Создавать темы 11-Авг-2014 06:20

[Цитировать]

PBS: Природа - Радиоактивные волки
PBS: Nature - Radioactive Wolves
- Год выпуска: 2011
Страна: США
Жанр: документальный
Продолжительность: 00:52:36
Перевод: Одноголосый (закадровый) Д. Есарев
Русские субтитры: нет
Субтитры: English
+ Оригинальная аудиодорожка: Английский-Режиссер: Клаус Файтенбергер / Klaus Fajtenberger-Описание: Вот и состоялась мировая премьера международного кино-проекта "Радиоактивные волки Чернобыля". Съемки фильма проводились в условиях дикой природы белорусского Полесского радиационно-экологического заповедника — на территории, на которую из-за сильного загрязнения радионуклидами доступ людей запрещен. По словам известного белорусского кинорежиссера-анималиста Бышнева Игоря, который вместе со специалистами трех крупных телеканалов США, Германии и Австрии полтора года переносил тяготы полевой работы в "зоне", в более экстремальных условиях снимать кино ему раньше не доводилось. Все же этот почти часовой полнометражный фильм превзошел все ожидания и, уверен режиссер, заслужит достойные оценки зрителей во многих странах.-Sample | КиноПоиск-Качество: BDRip | исх.BDRip 1080p
Формат: AVI
Видео: 704x400 (16:9), 25,000 fps, XviD build 65, ~1967 kbps avg, 0.27 bit/pixel
Аудио# 1: 48.0 kHz, AC3 Dolby Digital, 3/2 (L,C,R,l,r) + LFE ch, ~384.00 kbps avg (RUS)
Аудио# 2: 48.0 kHz, AC3 Dolby Digital, 3/2 (L,C,R,l,r) + LFE ch, ~384.00 kbps avg (ENG)

MediaInfo

ОбщееПолное имя : A:\Фильмы\PBS.Nature.Radioactive.Wolves.2011.aviФормат : AVIФормат/Информация : Audio Video InterleaveРазмер файла : 1,01 ГбайтПродолжительность : 52 м.Общий поток : 2750 Кбит/секПрограмма кодирования : VirtualDubMod 1.5.10.2 (build 2540/release)Библиотека кодирования : VirtualDubMod build 2540/releaseПравообладатель : Rutracker.orgПримечание : B.A.T.U.S.A.Y.
ВидеоИдентификатор : 0Формат : MPEG-4 VisualПрофиль формата : Advanced Simple@L5Параметр BVOP формата : 2Параметр QPel формата : НетПараметр GMC формата : Без точки переходаПараметр матрицы формата : Default (H.263)Идентификатор кодека : XVIDИдентификатор кодека/Подсказка : XviDПродолжительность : 52 м.Битрейт : 1967 Кбит/секШирина : 704 пикселяВысота : 400 пикселейСоотношение сторон : 16:9Частота кадров : 25,000 кадров/секЦветовое пространство : YUVСубдискретизация насыщенности : 4:2:0Битовая глубина : 8 битТип развёртки : ПрогрессивнаяМетод сжатия : С потерямиБит/(Пиксели*Кадры) : 0.279Размер потока : 740 Мбайт (72%)Библиотека кодирования : XviD 65
Аудио #1Идентификатор : 1Формат : AC-3Формат/Информация : Audio Coding 3Расширение режима : CM (complete main)Параметр Endianness формата : BigИдентификатор кодека : 2000Продолжительность : 52 м.Вид битрейта : ПостоянныйБитрейт : 384 Кбит/секКаналы : 6 каналовРасположение каналов : Front: L C R, Side: L R, LFEЧастота : 48,0 КГцБитовая глубина : 16 битМетод сжатия : С потерямиРазмер потока : 144 Мбайт (14%)Выравнивание : Разделение по промежуткамПродолжительность промежутка : 40 мс. (1,00 видеокадр)Время предзагрузки промежутка : 500 мс.Заголовок : RUS
Аудио #2Идентификатор : 2Формат : AC-3Формат/Информация : Audio Coding 3Расширение режима : CM (complete main)Параметр Endianness формата : BigИдентификатор кодека : 2000Продолжительность : 52 м.Вид битрейта : ПостоянныйБитрейт : 384 Кбит/секКаналы : 6 каналовРасположение каналов : Front: L C R, Side: L R, LFEЧастота : 48,0 КГцБитовая глубина : 16 битМетод сжатия : С потерямиРазмер потока : 144 Мбайт (14%)Выравнивание : Разделение по промежуткамПродолжительность промежутка : 40 мс. (1,00 видеокадр)Время предзагрузки промежутка : 500 мс.Заголовок : ENG

Скриншоты


[Профиль] [ЛС]
Кто просматривает тему:

Показать сообщения:    

Текущее время: Сегодня 14:29

Часовой пояс: GMT



Вы не можете начинать темы
Вы не можете отвечать на сообщения
Вы не можете редактировать свои сообщения
Вы не можете удалять свои сообщения
Вы не можете голосовать в опросах
Вы не можете прикреплять файлы к сообщениям
Вы не можете скачивать файлы