Paolo Nutini. SWR3 New Pop Festival 2006 [2014, Pop rock/Blue eyed soul/Folk/Blues/Easy Listen, HDTV 720p]

 
Автор Сообщение

reversefile ®

Пол:

Стаж: 4 года 5 месяцев

Сообщений: 842

Откуда: ReverseFile.org



Награды: Нет

Торрент-статистика

Создавать темы 11-Авг-2014 18:53

[Цитировать]

Paolo Nutini. SWR3 New Pop Festival 2006
Жанр: Pop rock/Blue eyed soul/Folk/Blues/Easy Listen
Продолжительность: 00:43:23
Год выпуска: 2014
Описание: Выступление шотландского автора, исполнителя и музыканта Paolo Giovanni Nutini на музыкальном фестивале молодых исполнителей SWR3 New Pop Festival в немецком Баден-Бадене 2006 sep21-23
Доп. информация: Собственная запись со спутникового канала 3SAT 2014 jul21
Треклист: Alloway Grove
Rewind
Day Dream
New Shoes
These Streets
Rainbows
January
Million Faces
Last Request
Loving You
Autumn
Crazy
Качество: HDTV 720p
Контейнер: TS
Видео кодек: H.264
Аудио кодек: AC3
Видео: Mpeg4 AVC, 1280x720, 13700 kbps, 50 fps Progressive
Аудио: AC3, 448 kbps, 48 kHz, stereo
Аудио 2: MP2, 256 kbps, 48 kHz, stereo
Аудио 3: MP2, 192 kbps, 48 kHz, stereo

Отчёт MediaInfo / BDInfo

GeneralID : 1 (0x1)Complete name : D:\Downloads\Paolo Nutini. SWR3 New Pop Festival 2006.tsFormat : MPEG-TSFile size : 4.72 GiBDuration : 43mn 23sOverall bit rate mode : VariableOverall bit rate : 15.6 Mbps
VideoID : 6510 (0x196E)Menu ID : 1 (0x1)Format : AVCFormat/Info : Advanced Video CodecFormat profile : High@L4.0Format settings, CABAC : YesFormat settings, ReFrames : 6 framesCodec ID : 27Duration : 43mn 23sBit rate : 13.7 MbpsWidth : 1 280 pixelsHeight : 720 pixelsDisplay aspect ratio : 16:9Frame rate : 50.000 fpsColor space : YUVChroma subsampling : 4:2:0Bit depth : 8 bitsScan type : ProgressiveBits/(Pixel*Frame) : 0.297Stream size : 4.15 GiB (88%)Color primaries : BT.709Transfer characteristics : BT.709Matrix coefficients : BT.709
Audio #1ID : 6520 (0x1978)Menu ID : 1 (0x1)Format : MPEG AudioFormat version : Version 1Format profile : Layer 2Codec ID : 3Duration : 43mn 23sBit rate mode : ConstantBit rate : 256 KbpsChannel(s) : 2 channelsSampling rate : 48.0 KHzCompression mode : LossyStream size : 79.5 MiB (2%)Language : German
Audio #2ID : 6521 (0x1979)Menu ID : 1 (0x1)Format : MPEG AudioFormat version : Version 1Format profile : Layer 2Codec ID : 3Duration : 43mn 23sBit rate mode : ConstantBit rate : 192 KbpsChannel(s) : 2 channelsSampling rate : 48.0 KHzCompression mode : LossyStream size : 59.6 MiB (1%)
Audio #3ID : 6522 (0x197A)Menu ID : 1 (0x1)Format : AC-3Format/Info : Audio Coding 3Mode extension : CM (complete main)Format settings, Endianness : BigCodec ID : 6Duration : 43mn 23sBit rate mode : ConstantBit rate : 448 KbpsChannel(s) : 2 channelsChannel positions : Front: L RSampling rate : 48.0 KHzBit depth : 16 bitsCompression mode : LossyStream size : 139 MiB (3%)Language : German
Audio #4ID : 6523 (0x197B)Menu ID : 1 (0x1)Format : MPEG AudioFormat version : Version 1Format profile : Layer 2Codec ID : 3Duration : 43mn 23sBit rate mode : ConstantBit rate : 192 KbpsChannel(s) : 2 channelsSampling rate : 48.0 KHzCompression mode : LossyStream size : 59.6 MiB (1%)Language : Multiple languages
TextID : 6530 (0x1982)-100Menu ID : 1 (0x1)Format : TeletextLanguage : German
MenuID : 6500 (0x1964)Menu ID : 1 (0x1)Duration : 43mn 23sList : 6510 (0x196E) (AVC) / 6520 (0x1978) (MPEG Audio, German) / 6521 (0x1979) (MPEG Audio) / 6522 (0x197A) (AC-3, German) / 6523 (0x197B) (MPEG Audio, Multiple languages) / 6530 (0x1982) ()Language : / German / / German / Multiple languages

Скриншоты

[Профиль] [ЛС]
Кто просматривает тему:

Показать сообщения:    

Текущее время: Сегодня 00:09

Часовой пояс: GMT



Вы не можете начинать темы
Вы не можете отвечать на сообщения
Вы не можете редактировать свои сообщения
Вы не можете удалять свои сообщения
Вы не можете голосовать в опросах
Вы не можете прикреплять файлы к сообщениям
Вы не можете скачивать файлы