(Heavy Metal) Ozzy Osbourne - Memoirs Of Madman - 2014 [FLAC, image+.cue, lossless]

 
Автор Сообщение

sergej644 ®

Пол:

Стаж: 4 года 11 месяцев

Сообщений: 6046

Откуда: Soviet Union



Награды: Нет

Торрент-статистика

Создавать темы 27-Окт-2014 10:32

[Цитировать]

-Ozzy Osbourne / Memoirs Of Madman-- Год издания: 2014
Страна: UK
Жанр: Heavy Metal
Продолжительность: 01:18:02-Лейбл издания: © + ® Epic Records/Legacy Recordings, Sony Music Entertainment Inc., Japan
Страна-выпуска диска: JAPAN
Номер по каталогу: EICP-30044
Формат: FLAC
Битрейт аудио: lossless
Тип рипа: image+.cue
Наличие сканов в содержимом раздачи: да
-

Трэклист

01.Crazy Train (04:51)
02.Mr. Crowley (04:56)
03.Flying High Again (04:43)
04.Over The Mountain (04:32)
05.Bark At The Moon (04:17)
06.The Ultimate Sin (03:45)
07.Miracle Man (03:44)
08.No More Tears (Edit) (05:55)
09.Mama, I'm Coming Home (04:12)
10.Road To Nowhere (05:10)
11.Perry Mason (05:53)
12.I Just Want You (04:55)
13.Gets Me Through (05:06)
14.Changes (with Kelly Osbourne) (04:09)
15.I Don't Wanna Stop (04:02)
16.Let Me Hear You Scream (03:27)
17.Paranoid (Live) (04:18)
-

Лог создания рипа

Exact Audio Copy V1.0 beta 3 from 29. August 2011
EAC extraction logfile from 16. October 2014, 17:46
Ozzy Osbourne / Memoirs Of Madman (Japan, EICP 30044)
Used drive  : PIONEER DVD-RW  DVR-219L   Adapter: 1  ID: 0
Read mode               : Secure
Utilize accurate stream : Yes
Defeat audio cache      : Yes
Make use of C2 pointers : No
Read offset correction                      : 6
Overread into Lead-In and Lead-Out          : No
Fill up missing offset samples with silence : Yes
Delete leading and trailing silent blocks   : No
Null samples used in CRC calculations       : Yes
Used interface                              : Native Win32 interface for Win NT & 2000
Used output format : Internal WAV Routines
Sample format      : 44.100 Hz; 16 Bit; Stereo
TOC of the extracted CD
     Track |   Start  |  Length  | Start sector | End sector
    ---------------------------------------------------------
        1  |  0:00.00 |  4:51.00 |         0    |    21824
        2  |  4:51.00 |  4:56.70 |     21825    |    44094
        3  |  9:47.70 |  4:43.55 |     44095    |    65374
        4  | 14:31.50 |  4:32.08 |     65375    |    85782
        5  | 19:03.58 |  4:17.21 |     85783    |   105078
        6  | 23:21.04 |  3:45.25 |    105079    |   121978
        7  | 27:06.29 |  3:44.55 |    121979    |   138833
        8  | 30:51.09 |  5:55.67 |    138834    |   165525
        9  | 36:47.01 |  4:12.01 |    165526    |   184426
       10  | 40:59.02 |  5:10.27 |    184427    |   207703
       11  | 46:09.29 |  5:53.51 |    207704    |   234229
       12  | 52:03.05 |  4:55.62 |    234230    |   256416
       13  | 56:58.67 |  5:06.03 |    256417    |   279369
       14  | 62:04.70 |  4:09.02 |    279370    |   298046
       15  | 66:13.72 |  4:02.00 |    298047    |   316196
       16  | 70:15.72 |  3:27.43 |    316197    |   331764
       17  | 73:43.40 |  4:18.63 |    331765    |   351177
Range status and errors
Selected range
     Filename D:\.www.AvaxHome.ru\Ozzy Osbourne - Memoirs Of Madman (Japan, EICP 30044).wav
     Peak level 99.4 %
     Extraction speed 8.4 X
     Range quality 100.0 %
     Test CRC CF4D4B72
     Copy CRC CF4D4B72
     Copy OK
No errors occurred
AccurateRip summary
Track  1  not present in database
Track  2  not present in database
Track  3  not present in database
Track  4  not present in database
Track  5  not present in database
Track  6  not present in database
Track  7  not present in database
Track  8  not present in database
Track  9  not present in database
Track 10  not present in database
Track 11  not present in database
Track 12  not present in database
Track 13  not present in database
Track 14  not present in database
Track 15  not present in database
Track 16  not present in database
Track 17  not present in database
None of the tracks are present in the AccurateRip database
End of status report
---- CUETools DB Plugin V2.1.4
[CTDB TOCID: 8YY.qWM0aeSiX7q59JEZwyAI7CU-] disk not present in database
Submit result: 8YY.qWM0aeSiX7q59JEZwyAI7CU- has been uploaded
==== Log checksum 964F6882D420B7B9DA091FC0194F15E0E2C0AF40FFD971DBBBCA07A437887175 ====

Индексная карта (non-compilant .cue)

REM GENRE "Heavy Metal"
REM DATE 2014
REM DISCID F3124A11
REM COMMENT "ExactAudioCopy v1.0b3"
PERFORMER "Ozzy Osbourne"
TITLE "Memoirs Of Madman (Japan, EICP 30044)"
FILE "Ozzy Osbourne - Memoirs Of Madman (Japan, EICP 30044).flac" WAVE
  TRACK 01 AUDIO
    TITLE "Crazy Train"
    PERFORMER "Ozzy Osbourne"
    ISRC USSM11002845
    INDEX 01 00:00:00
  TRACK 02 AUDIO
    TITLE "Mr. Crowley"
    PERFORMER "Ozzy Osbourne"
    ISRC USSM11002849
    INDEX 01 04:51:00
  TRACK 03 AUDIO
    TITLE "Flying High Again"
    PERFORMER "Ozzy Osbourne"
    ISRC USSM11002857
    INDEX 01 09:47:70
  TRACK 04 AUDIO
    TITLE "Over The Mountain"
    PERFORMER "Ozzy Osbourne"
    ISRC USSM11002856
    INDEX 01 14:31:50
  TRACK 05 AUDIO
    TITLE "Bark At The Moon"
    PERFORMER "Ozzy Osbourne"
    ISRC USSM18300021
    INDEX 01 19:03:58
  TRACK 06 AUDIO
    TITLE "The Ultimate Sin"
    PERFORMER "Ozzy Osbourne"
    ISRC USSM18600031
    INDEX 01 23:21:04
  TRACK 07 AUDIO
    TITLE "Miracle Man"
    PERFORMER "Ozzy Osbourne"
    ISRC USSM18800002
    INDEX 01 27:06:29
  TRACK 08 AUDIO
    TITLE "No More Tears (Edit)"
    PERFORMER "Ozzy Osbourne"
    ISRC USSM19100155
    INDEX 01 30:51:09
  TRACK 09 AUDIO
    TITLE "Mama, I'm Coming Home"
    PERFORMER "Ozzy Osbourne"
    ISRC USSM19100017
    INDEX 01 36:47:01
  TRACK 10 AUDIO
    TITLE "Road To Nowhere"
    PERFORMER "Ozzy Osbourne"
    ISRC USSM19100024
    INDEX 01 40:59:02
  TRACK 11 AUDIO
    TITLE "Perry Mason"
    PERFORMER "Ozzy Osbourne"
    ISRC USSM19501359
    INDEX 01 46:09:29
  TRACK 12 AUDIO
    TITLE "I Just Want You"
    PERFORMER "Ozzy Osbourne"
    ISRC USSM19501360
    INDEX 01 52:03:05
  TRACK 13 AUDIO
    TITLE "Gets Me Through"
    PERFORMER "Ozzy Osbourne"
    ISRC USSM10108343
    INDEX 01 56:58:67
  TRACK 14 AUDIO
    TITLE "Changes (with Kelly Osbourne)"
    PERFORMER "Ozzy Osbourne"
    ISRC USLIC0500014
    INDEX 01 62:04:70
  TRACK 15 AUDIO
    TITLE "I Don't Wanna Stop"
    PERFORMER "Ozzy Osbourne"
    ISRC USSM10701376
    INDEX 01 66:13:72
  TRACK 16 AUDIO
    TITLE "Let Me Hear You Scream"
    PERFORMER "Ozzy Osbourne"
    ISRC USSM11000984
    INDEX 01 70:15:72
  TRACK 17 AUDIO
    TITLE "Paranoid (Live)"
    PERFORMER "Ozzy Osbourne"
    ISRC USSM11406088
    INDEX 01 73:43:40

Скриншот спектра частот

[Профиль] [ЛС]
Показать сообщения:    

Текущее время: Сегодня 07:14

Часовой пояс: GMT



Вы не можете начинать темы
Вы не можете отвечать на сообщения
Вы не можете редактировать свои сообщения
Вы не можете удалять свои сообщения
Вы не можете голосовать в опросах
Вы не можете прикреплять файлы к сообщениям
Вы не можете скачивать файлы