No comment (2014) WEB-DLRip| КПК

 
Автор Сообщение

Шкипер ®

Пол:

Стаж: 1 год 8 месяцев

Сообщений: 53



Награды: Нет

Торрент-статистика

Создавать темы 24-Авг-2016 09:07

[Цитировать]

Информация о фильме
Название: No comment
Год выхода: 2014
Жанр: Драма
Режиссер: Артём Темников
В ролях: Александр Новин, Леонард Проксауф, Дмитрий Журавлев, Евгений Орехов
О фильме:
Во имя первой любви к прекрасной турчанке молодой немец отказывается от своего прошлого, сжигая семейные фотографии. Он больше не Томас. Теперь его зовут Хамза. И он завербован. Алексей Басаргин — капитан российской армии, разведчик, любящий муж и отец. Они ведут видеодневники своей жизни. Две судьбы. Два мира. Столкновение неизбежно.

Страна: Россия
Продолжительность: 01:47:05
Перевод: Не требуется (на иностранную речь Одноголосый)
Файл
Кодек: AVC
Качество: WEB-DLRip| КПК
Видео: 480х272 (16:9), 350 Kbps, AVC (x264), 25.000 fps, 0.11 bit/pixel
Звук: 44.1 KHz, AAC LC, 2 ch, 126 Kbps
Субтитры: Отсутствует
Семпл

MI

General
Complete name : D:Изготовление рипаNo.comment.2014.WEB-DLRip by shkiper.mp4
Format : MPEG-4
Format profile : Base Media
Codec ID : isom (isom/avc1)
File size : 367 MiB
Duration : 1h 47mn
Overall bit rate mode : Variable
Overall bit rate : 478 Kbps
Encoded date : UTC 2016-08-23 06:01:06
Tagged date : UTC 2016-08-23 06:01:06
Video
ID : 1
Format : AVC
Format/Info : Advanced Video Codec
Format profile : Baseline@L3
Format settings, CABAC : No
Format settings, ReFrames : 1 frame
Codec ID : avc1
Codec ID/Info : Advanced Video Coding
Duration : 1h 47mn
Bit rate : 350 Kbps
Maximum bit rate : 1 340 Kbps
Width : 480 pixels
Height : 272 pixels
Display aspect ratio : 16:9
Frame rate mode : Constant
Frame rate : 25.000 fps
Color space : YUV
Chroma subsampling : 4:2:0
Bit depth : 8 bits
Scan type : Progressive
Bits/(Pixel*Frame) : 0.107
Stream size : 268 MiB (73%)
Title : Imported with GPAC 0.4.6-DEV (internal rev. 5)
Writing library : x264 core 67 r1165M 6841c5e
Encoding settings : cabac=0 / ref=1 / deblock=1:0:0 / analyse=0x1:0 / me=hex / subme=6 / psy_rd=1.0:0.0 / mixed_ref=0 / me_range=16 / chroma_me=1 / trellis=0 / 8x8dct=0 / cqm=0 / deadzone=21,11 / chroma_qp_offset=-2 / threads=3 / nr=0 / decimate=1 / mbaff=0 / bframes=0 / keyint=250 / keyint_min=25 / scenecut=40 / rc=2pass / bitrate=350 / ratetol=1.0 / qcomp=0.60 / qpmin=10 / qpmax=51 / qpstep=4 / cplxblur=20.0 / qblur=0.5 / vbv_maxrate=1500 / vbv_bufsize=2000 / ip_ratio=1.40 / aq=1:1.00
Encoded date : UTC 2016-08-23 06:01:06
Tagged date : UTC 2016-08-23 06:01:39
Audio
ID : 2
Format : AAC
Format/Info : Advanced Audio Codec
Format profile : LC
Codec ID : 40
Duration : 1h 47mn
Bit rate mode : Variable
Bit rate : 126 Kbps
Maximum bit rate : 161 Kbps
Channel(s) : 2 channels
Channel positions : Front: L R
Sampling rate : 44.1 KHz
Frame rate : 43.066 fps (1024 spf)
Compression mode : Lossy
Stream size : 96.3 MiB (26%)
Title : Imported with GPAC 0.4.6-DEV (internal rev. 5)
Encoded date : UTC 2016-08-23 06:01:30
Tagged date : UTC 2016-08-23 06:01:39

Скриншоты

Релиз от:


Последний раз редактировалось: Шкипер (2016-08-24 09:08), всего редактировалось 1 раз
[Профиль] [ЛС]

Шкипер ®

Пол:

Стаж: 1 год 8 месяцев

Сообщений: 53



Награды: Нет

Торрент-статистика

Создавать темы 24-Авг-2016 09:08 (спустя 1 минута)

[Цитировать]

Если не попал то перенесёте в нужное место сами
[Профиль] [ЛС]

Создавать темы 24-Авг-2016 15:24 (спустя 6 часов)

Топик был перенесен из форума Фильмы для iOS,iPad, iPhone в форум Видео для мобильных устройств
Russian Mafia
 
Кто просматривает тему:

Форум Тема Автор Размер
Фильмы (HD Rips | 720p, 1080p) No comment (2014) WEB-DL 1080p BOSS 3.94 GB
Фильмы 2014 года No comment (2014) WEB-DLRip BOSS 1.46 GB
Показать сообщения:    

Текущее время: Сегодня 18:51

Часовой пояс: GMT



Вы не можете начинать темы
Вы не можете отвечать на сообщения
Вы не можете редактировать свои сообщения
Вы не можете удалять свои сообщения
Вы не можете голосовать в опросах
Вы не можете прикреплять файлы к сообщениям
Вы не можете скачивать файлы