Nightwish - Showtime, Storytime (2013) BDRip 720p

 
Автор Сообщение

sergej644 ®

Пол:

Стаж: 4 года 11 месяцев

Сообщений: 6046

Откуда: Soviet Union



Награды: Нет

Торрент-статистика

Создавать темы 31-Окт-2014 11:52

[Цитировать]

--Nightwish - Showtime, Storytime (2013)
Информация о фильме
Название: Nightwish: Showtime, Storytime
Год выхода: 2013
Выпущено: Nuclear Blast
Страна: Финляндия
Жанр: Концерт, музыка
Продолжительность: 01:38:06
Перевод: Не требуется
Режиссер: Ville Lipiäinen
Исполнитель: Floor Jansen
-Описание
Выступление знаменитой финской Symphonic Power Metal команды "Nightwish" на "Wacken Open Air 2013" с новой нидерландской вокалисткой Floor Jansen (ex - After Forever, действующая вокалистка ReVamp и Nightwish).

Треклист

01. Dark Chest of Wonders
02. Wish I Had an Angel
03. She Is My Sin
04. Ghost River
05. Ever Dream
06. Storytime
07. I Want My Tears Back
08. Nemo
09. Last of the Wilds
10. Bless the Child
11. Romanticide
12. Amaranth
13. Ghost Love Score
14. Song of Myself
15. Last Ride of the Day
16. Outro (Imaginaerum)
-Файл
Кодек: x264
Формат: MKV
Качество: BDRip 720p (Источник: Blu-ray Disc)
Видео: MPEG-4 AVC (16:9) 1280x720 pix, 24.000 fps, 8242 kbps
Аудио I: Flac (2.0) 16 bit, 48 kHz, Lossless
Аудио II: DTS (5.1) 16 bit, 48 kHz, 1509 kbps, DN -3dB
Аудио III: Dolby Digital (5.1) 16 bit, 48 kHz, 640 kbps
Меню: Сохранены оригинальные чаптеры Blu-ray

MI & x264

General
Unique ID : 188150087525605469085982818713553230601 (0x8D8C6385CE481A5F889DFE4620465B09)
Format : Matroska
Format version : Version 2
File size : 7.76 GiB
Duration : 1h 38mn
Overall bit rate mode : Variable
Overall bit rate : 11.3 Mbps
Movie name : Nightwish - Showtime, Storytime (2013) BDRip (720p)
Encoded date : UTC 2014-09-26 11:14:56
Writing application : mkvmerge v5.8.0 ('No Sleep / Pillow') built on Sep 2 2012 15:37:04
Writing library : libebml v1.2.3 + libmatroska v1.3.0
Video
ID : 1
Format : AVC
Format/Info : Advanced Video Codec
Format profile : High@L4.1
Format settings, CABAC : Yes
Format settings, ReFrames : 9 frames
Codec ID : V_MPEG4/ISO/AVC
Duration : 1h 38mn
Nominal bit rate : 8 242 Kbps
Width : 1 280 pixels
Height : 720 pixels
Display aspect ratio : 16:9
Frame rate mode : Constant
Frame rate : 24.000 fps
Color space : YUV
Chroma subsampling : 4:2:0
Bit depth : 8 bits
Scan type : Progressive
Bits/(Pixel*Frame) : 0.373
Title : Release by Alex260680
Writing library : x264 core 142 r2479 dd79a61
Encoding settings : cabac=1 / ref=9 / deblock=1:-3:-3 / analyse=0x3:0x133 / me=umh / subme=11 / psy=1 / psy_rd=1.00:0.05 / mixed_ref=1 / me_range=32 / chroma_me=1 / trellis=2 / 8x8dct=1 / cqm=0 / deadzone=21,11 / fast_pskip=0 / chroma_qp_offset=-3 / threads=6 / lookahead_threads=1 / sliced_threads=0 / nr=0 / decimate=0 / interlaced=0 / bluray_compat=0 / constrained_intra=0 / bframes=8 / b_pyramid=2 / b_adapt=2 / b_bias=0 / direct=3 / weightb=1 / open_gop=0 / weightp=2 / keyint=240 / keyint_min=24 / scenecut=40 / intra_refresh=0 / rc=2pass / mbtree=0 / bitrate=8242 / ratetol=1.0 / qcomp=0.60 / qpmin=0 / qpmax=69 / qpstep=4 / cplxblur=20.0 / qblur=0.5 / ip_ratio=1.40 / pb_ratio=1.30 / aq=1:0.70
Language : English
Default : Yes
Forced : No
Audio #1
ID : 2
Format : FLAC
Format/Info : Free Lossless Audio Codec
Codec ID : A_FLAC
Duration : 1h 38mn
Bit rate mode : Variable
Channel(s) : 2 channels
Sampling rate : 48.0 KHz
Bit depth : 16 bits
Title : Flac 2.0
Writing library : libFLAC 1.2.1 (UTC 2007-09-17)
Language : English
Default : Yes
Forced : No
Audio #2
ID : 3
Format : DTS
Format/Info : Digital Theater Systems
Mode : 16
Format settings, Endianness : Big
Codec ID : A_DTS
Duration : 1h 38mn
Bit rate mode : Constant
Bit rate : 1 509 Kbps
Channel(s) : 6 channels
Channel positions : Front: L C R, Side: L R, LFE
Sampling rate : 48.0 KHz
Bit depth : 16 bits
Compression mode : Lossy
Stream size : 1.03 GiB (13%)
Title : DTS Digital Surround 5.1
Language : English
Default : No
Forced : No
Audio #3
ID : 4
Format : AC-3
Format/Info : Audio Coding 3
Mode extension : CM (complete main)
Format settings, Endianness : Big
Codec ID : A_AC3
Duration : 1h 38mn
Bit rate mode : Constant
Bit rate : 640 Kbps
Channel(s) : 6 channels
Channel positions : Front: L C R, Side: L R, LFE
Sampling rate : 48.0 KHz
Bit depth : 16 bits
Compression mode : Lossy
Stream size : 449 MiB (6%)
Title : Dolby Digital 5.1
Language : English
Default : No
Forced : No
Menu
00:00:00.000 : en:Intro
00:01:08.750 : en:Dark Chest Of Wonders
00:05:47.500 : en:Wish I Had An Angel
00:10:38.125 : en:She Is My Sin
00:15:51.666 : en:Ghost River
00:22:12.291 : en:Ever Dream
00:27:49.791 : en:Storytime
00:33:54.375 : en:I Want My Tears Back
00:40:48.958 : en:Nemo
00:45:39.583 : en:Last Of The Wilds
00:52:33.125 : en:Bless The Child
00:59:58.958 : en:Romanticide
01:05:41.666 : en:Amaranth
01:10:21.875 : en:Ghost Love Score
01:21:19.166 : en:Song Of Myself
01:29:32.916 : en:Last Ride Of The Day
01:34:22.500 : en:Outro (Imaginaerum)-x264 [info]: frame I:1858 Avg QP:16.21 size:134037
x264 [info]: frame P:41809 Avg QP:18.47 size: 63335
x264 [info]: frame B:97618 Avg QP:21.02 size: 32447
x264 [info]: consecutive B-frames: 6.7% 7.6% 15.9% 36.4% 15.5% 15.1% 1.7% 0.7% 0.4%
-- --
[Профиль] [ЛС]
Показать сообщения:    

Текущее время: Сегодня 14:57

Часовой пояс: GMT



Вы не можете начинать темы
Вы не можете отвечать на сообщения
Вы не можете редактировать свои сообщения
Вы не можете удалять свои сообщения
Вы не можете голосовать в опросах
Вы не можете прикреплять файлы к сообщениям
Вы не можете скачивать файлы