NGW: Дикая природа. Южная Африка / Wild South Africa [серии 1-3 из 3] (Thomas Behrend) [2015 г., Документальный, фауна, флора, DVB 1080i]

 
Автор Сообщение

skorpionN ®

Пол:

Стаж: 2 года 8 месяцев

Сообщений: 858



Награды: 4 (Подробнее)

Top Releaser 2 (Количество: 1) Mega Seeder 3 (Количество: 1) Mega Seeder 1 (Количество: 1)
Торрент-статистика

Создавать темы 05-Сен-2017 13:15

[Цитировать]

NGW: Дикая природа. Южная Африка / Wild South Africa [серии 1-3 из 3]
Год выпуска: 2015
Страна: Германия, DocLights GmbH / NDR Naturfilm
Жанр: Документальный, фауна, флора
Продолжительность: 3x~00:40:00
Перевод: Профессиональный (одноголосый), студия "Велес", текст читает Юрий Романов
Режиссер: Thomas Behrend
Описание: Жизненная сила всего материка заключена в одной удивительной местности, месте, которое оправдывает ожидание, а затем ошеломляет вас. Помимо традиционных для Африки животных этот регион населяют неожиданные виды, встречающиеся только здесь, в суровом, щедром и самом разнообразном краю на нашей планете.
Список серий:
01. Разрыв шаблонов / Clash of Currents
Нигде в мире вы не встретите жару и холод, тропики и пустыню, одним словом, Африку и Антарктиду в одном регионе. И этот регион - Южная Африка, разнообразная как целый континент!
02. Земля гигантов / Land of the Giants
На пляжах и в пальмовых зарослях на побережье Южной Африки всегда жарко и липко, это идеальное место для лягушек, илистых прыгунов и крокодилов.
03. Убийцы Калахари / Killers of the Kalahari
От саванны до пустыни, в сердце Южной Африки обитают одни из самых лучших охотников и самых странных животных в мире.
Качество: DVB
Формат: MPEG -TS
Видео кодек: H.264
Аудио кодек: MPEG Audio
Видео: 1920x1080 (16:9), 25.000 fps, ~8423 Kbps
Аудио 1: (Rus) MPEG Audio 2ch, 48kHz, 192 kbps
Аудио 2: (En) MPEG Audio 2ch, 48kHz, 192 kbps

Скриншоты


MediaInfo:

Format : MPEG-TS
File size : 2.93 GiB
Duration : 45 min 14 s
Overall bit rate mode : Variable
Overall bit rate : 9 269 kb/s
Video
ID : 201 (0xC9)
Menu ID : 20101 (0x4E85)
Format : AVC
Format/Info : Advanced Video Codec
Format profile : High@L4
Format settings, CABAC : Yes
Format settings, ReFrames : 4 frames
Codec ID : 27
Duration : 45 min 14 s
Bit rate : 8 423 kb/s
Width : 1 920 pixels
Height : 1 080 pixels
Display aspect ratio : 16:9
Frame rate : 25.000 FPS
Standard : Component
Color space : YUV
Chroma subsampling : 4:2:0
Bit depth : 8 bits
Scan type : Interlaced
Scan type, store method : Separated fields
Scan order : Top Field First
Bits/(Pixel*Frame) : 0.162
Stream size : 2.66 GiB (91%)
Color range : Limited
Color primaries : BT.709
Transfer characteristics : BT.709
Matrix coefficients : BT.709
Audio #1
ID : 301 (0x12D)
Menu ID : 20101 (0x4E85)
Format : MPEG Audio
Format version : Version 1
Format profile : Layer 2
Codec ID : 3
Duration : 45 min 14 s
Bit rate mode : Constant
Bit rate : 192 kb/s
Channel(s) : 2 channels
Sampling rate : 48.0 kHz
Compression mode : Lossy
Delay relative to video : -120 ms
Stream size : 62.1 MiB (2%)
Language : Russian
Audio #2
ID : 302 (0x12E)
Menu ID : 20101 (0x4E85)
Format : MPEG Audio
Format version : Version 1
Format profile : Layer 2
Codec ID : 3
Duration : 45 min 14 s
Bit rate mode : Constant
Bit rate : 192 kb/s
Channel(s) : 2 channels
Sampling rate : 48.0 kHz
Compression mode : Lossy
Delay relative to video : -120 ms
Stream size : 62.1 MiB (2%)
Language : English

Внимание:

Раздача ведётся путём добавления новых серий; при каждом добавлении создаётся новый торрент. Чтобы начать докачку новой серии, пользователям необходимо сделать следующее:
- Остановить скачивание.
- Удалить старый торрент у себя из клиента (старые серии удалять не надо).
- Скачать новый торрент и запустить его у себя в клиенте вместо старого, при этом указать клиенту путь в старую папку куда и должно происходить скачивание новых серий.
Добавлено:
03. Убийцы Калахари / Killers of the Kalahari
[Профиль] [ЛС]

skorpionN ®

Пол:

Стаж: 2 года 8 месяцев

Сообщений: 858



Награды: 4 (Подробнее)

Top Releaser 2 (Количество: 1) Mega Seeder 3 (Количество: 1) Mega Seeder 1 (Количество: 1)
Торрент-статистика

Создавать темы 18-Сен-2017 12:03 (спустя 12 дней)

[Цитировать]

Сериал окончен
[Профиль] [ЛС]
Кто просматривает тему:

Показать сообщения:    

Текущее время: Сегодня 07:27

Часовой пояс: GMT



Вы не можете начинать темы
Вы не можете отвечать на сообщения
Вы не можете редактировать свои сообщения
Вы не можете удалять свои сообщения
Вы не можете голосовать в опросах
Вы не можете прикреплять файлы к сообщениям
Вы не можете скачивать файлы