NGW: Вся правда о крокодилах / The whole truth about crocodiles (Алан Миллер / Alan Miller) [2015 г., Документальный, научно-популярный, DVB 1080i]

 
Автор Сообщение

skorpionN ®

Пол:

Стаж: 2 года 6 месяцев

Сообщений: 805



Награды: 4 (Подробнее)

Top Releaser 2 (Количество: 1) Mega Seeder 1 (Количество: 1) Mega Seeder 2 (Количество: 1)
Торрент-статистика

Создавать темы 07-Сен-2017 12:47

[Цитировать]

NGW: Вся правда о крокодилах / The whole truth about crocodiles
Год выпуска: 2015
Страна: Нидерланды, Nature Conservation Films World Wide B.V.
Жанр: Документальный, научно-популярный
Продолжительность: 00:43:59
Перевод: Профессиональный (одноголосый), студия "Велес", текст читает Олег Белов
Режиссер: Алан Миллер / Alan Miller
Описание: Одни из самых впечатляющих существ на планете живут в африканской реке бок о бок. Бегемоты и крокодилы терпят друг друга но другие животные могут угрожать молодым и беззащитным представителям обоих видов. Вооруженные огромными челюстями они борются за драгоценную территорию, а тем, кто станет у них на пути, придется за это поплатиться.
В этом документальном фильме от National Geographic - "Вся правда о крокодилах" вы увидите, как уживаются друг с другом одни из самых впечатляющих существ на планете - крокодилы и бегемоты.
Качество: DVB
Формат: MPEG -TS
Видео кодек: H.26x
Аудио кодек: MPEG Audio
Видео: 1920x1080 (16:9), 25.000 fps, ~10.4 Mb/s
Аудио 1: (Rus) MPEG Audio 2ch, 48kHz, 192 kbps
Аудио 2: (En) MPEG Audio 2ch, 48kHz, 192 kbps

Скриншоты


MediaInfo:

Format : MPEG-TS
File size : 3.48 GiB
Duration : 43 min 59 s
Overall bit rate mode : Variable
Overall bit rate : 11.3 Mb/s
Video
ID : 4113 (0x1011)
Menu ID : 1 (0x1)
Format : AVC
Format/Info : Advanced Video Codec
Format profile : High@L4
Format settings, CABAC : Yes
Format settings, ReFrames : 4 frames
Codec ID : 27
Duration : 43 min 59 s
Bit rate mode : Variable
Bit rate : 10.4 Mb/s
Maximum bit rate : 40.0 Mb/s
Width : 1 920 pixels
Height : 1 080 pixels
Display aspect ratio : 16:9
Frame rate : 25.000 FPS
Standard : Component
Color space : YUV
Chroma subsampling : 4:2:0
Bit depth : 8 bits
Scan type : Interlaced
Scan type, store method : Separated fields
Scan order : Top Field First
Bits/(Pixel*Frame) : 0.200
Stream size : 3.19 GiB (92%)
Color range : Limited
Color primaries : BT.709
Transfer characteristics : BT.709
Matrix coefficients : BT.709
Audio #1
ID : 4352 (0x1100)
Menu ID : 1 (0x1)
Format : MPEG Audio
Format version : Version 1
Format profile : Layer 2
Codec ID : 3
Duration : 43 min 59 s
Bit rate mode : Constant
Bit rate : 192 kb/s
Channel(s) : 2 channels
Sampling rate : 48.0 kHz
Compression mode : Lossy
Stream size : 60.4 MiB (2%)
Language : Russian
Audio #2
ID : 4353 (0x1101)
Menu ID : 1 (0x1)
Format : MPEG Audio
Format version : Version 1
Format profile : Layer 2
Codec ID : 3
Duration : 43 min 59 s
Bit rate mode : Constant
Bit rate : 192 kb/s
Channel(s) : 2 channels
Sampling rate : 48.0 kHz
Compression mode : Lossy
Stream size : 60.4 MiB (2%)
Language : English
[Профиль] [ЛС]
Кто просматривает тему:

Показать сообщения:    

Текущее время: Сегодня 04:12

Часовой пояс: GMT



Вы не можете начинать темы
Вы не можете отвечать на сообщения
Вы не можете редактировать свои сообщения
Вы не можете удалять свои сообщения
Вы не можете голосовать в опросах
Вы не можете прикреплять файлы к сообщениям
Вы не можете скачивать файлы