NG. Суперсооружения Третьего рейха (2 сезон, 6 серия из 6) / Nazi Megastructures (Megastructures: Nazi Mega Weapons) - 2 [2014, Документальный, война, история, HDTVRip 720p]

 
Автор Сообщение

TorrentFilm ®

Пол:

Стаж: 1 год 11 месяцев

Сообщений: 7741



Награды: Нет

Торрент-статистика

Создавать темы 06-Апр-2015 00:03

[Цитировать]

NG. Суперсооружения Третьего рейха (2 сезон, 6 серия из 6) / Nazi Megastructures (Megastructures: Nazi Mega Weapons) - 2
Дата/Год выпуска: 2014
Страна: США, National Geographic
Жанр: Документальный, война, история
Продолжительность: 1 х ~ 00:43:38
Перевод: Профессиональный (дублированный)
Телеканал: National Geographic HD (Германия)
Описание: В стремлении к мировому господству нацисты построили некоторые из самых амбициозных и прогрессивных образцов боевой техники, а также разработали самые злодейские технологии в истории; создали продвинутые машины террора, огромные оборонительные системы и оружие массового уничтожения, чтобы завоевать континент и выиграть войну. Этот сериал о Второй Мировой войне рассказывает о ней с уникальной, новой точки зрения. В 6 эпизодах мы раскрываем секреты 6 знаковых инженерных и технических мегасооружений нацистов, рассказывая истории конструкторов и инженеров, которые помогли создать их, и, показывая, как эти сооружения дали направление одному из самых смертоносных конфликтов в истории.
Уникальные сооружения призванные изменить представления о военном искусстве и обеспечить победу во Второй мировой войне. Гитлеровская мечта о мировом господстве. Канал National Geographic представляет новые серии программы об амбициозных планах Гитлера.
Доп. информация: Авторство релиза - alf62
В релизе использован видеофайл из трансляции National Geographic HD по немецкому ТВ.
Немецкая звуковая дорожка заменена на русскую.


качество: HDTVRip 720p
формат: MKV
Видео: MPEG-4 AVC, ~ 4254 Кбит/с, 1280x720
Аудио: AC3, 2 ch, 192 Кбит/с

Список выпусков/серий

6. Камикадзе / Kamikaze Suicide Bombers
В 1944 Япония находилась на грани поражения, и её военные прибегли к новой отчаянной тактике: использованию самолетов-снарядов и человеко-торпед.

MediaInfo

NG.Nazi.Mega.Weapons.(S2).2014.720p.hdtv.x264.alf62\NG.Nazi.Mega.Weapons.(S2.Ep6).Kamikadze.2014.720p.hdtv.x264.alf62.mkvФормат : MatroskaВерсия формата : Version 4 / Version 2Размер файла : 1,31 ГбайтПродолжительность : 43 м.Общий поток : 4303 Кбит/секДата кодирования : UTC 2015-04-01 14:10:40Программа кодирования : mkvmerge v6.6.0 ('The Edge Of The In Between') built on Dec 1 2013 17:55:00Библиотека кодирования : libebml v1.3.0 + libmatroska v1.4.1
ВидеоИдентификатор : 1Формат : AVCФормат/Информация : Advanced Video CodecПрофиль формата : High@L4.0Параметр CABAC формата : ДаПараметр ReFrames формата : 8 кадровИдентификатор кодека : V_MPEG4/ISO/AVCПродолжительность : 43 м.Битрейт : 4110 Кбит/секШирина : 1280 пикселейВысота : 712 пикселейСоотношение сторон : 16:9Режим частоты кадров : ПостоянныйЧастота кадров : 29,970 кадров/секЦветовое пространство : YUVСубдискретизация насыщенности : 4:2:0Битовая глубина : 8 битТип развёртки : ПрогрессивнаяБит/(Пиксели*Кадры) : 0.150Размер потока : 1,23 Гбайт (94%)Библиотека кодирования : x264 core 130 r2273 b3065e6Настройки программы : cabac=1 / ref=8 / deblock=1:-1:-1 / analyse=0x3:0x133 / me=umh / subme=7 / psy=1 / psy_rd=1.00:0.10 / mixed_ref=1 / me_range=16 / chroma_me=1 / trellis=2 / 8x8dct=1 / cqm=0 / deadzone=21,11 / fast_pskip=0 / chroma_qp_offset=-3 / threads=6 / lookahead_threads=1 / sliced_threads=0 / nr=0 / decimate=1 / interlaced=0 / bluray_compat=0 / constrained_intra=0 / bframes=3 / b_pyramid=2 / b_adapt=2 / b_bias=0 / direct=3 / weightb=1 / open_gop=0 / weightp=2 / keyint=250 / keyint_min=25 / scenecut=40 / intra_refresh=0 / rc_lookahead=50 / rc=2pass / mbtree=1 / bitrate=4110 / ratetol=1.0 / qcomp=0.60 / qpmin=0 / qpmax=69 / qpstep=4 / cplxblur=20.0 / qblur=0.5 / ip_ratio=1.40 / aq=1:1.00Default : ДаForced : Нет
АудиоИдентификатор : 2Формат : AC-3Формат/Информация : Audio Coding 3Расширение режима : CM (complete main)Параметр Endianness формата : BigИдентификатор кодека : A_AC3Продолжительность : 43 м.Вид битрейта : ПостоянныйБитрейт : 192 Кбит/секКаналы : 2 каналаРасположение каналов : Front: L RЧастота : 48,0 КГцБитовая глубина : 16 битМетод сжатия : С потерямиРазмер потока : 59,9 Мбайт (4%)Default : ДаForced : Нет
Внимание! Раздача ведётся путём добавления новых серий

скрытый текст

Внимание! Раздача ведётся путём добавления новых серий; при каждом добавлении создаётся новый торрент. Чтобы начать докачку новой серии, пользователям необходимо сделать следующее:
• Остановить скачивание.
• Удалить старый торрент у себя из клиента (старые серии удалять не надо).
• Скачать новый торрент и запустить его у себя в клиенте вместо старого, при этом указать клиенту путь в старую папку куда и должно происходить скачивание новых серий.
Ваш клиент при этом должен произвести хеширование (проверку) старой папки (если не производит сам - помогите ему сделать это), и будет докачивать только те серии которых у вас ещё нет. Старые серии при этом не удаляются, а продолжают раздаваться!
Eсли вы уже удалили старые серии, то предотвратить повторную закачку старых серий можно, отжав галочку в соответсвующих местах при запуске нового торрента. По возможности, желательно не удалять старые серии как можно дольше чтобы релизёр не столько продолжал раздавать старые серии, а смог сконцентрироваться на новых.
[Профиль] [ЛС]
Кто просматривает тему:

Показать сообщения:    

Текущее время: Сегодня 17:58

Часовой пояс: GMT



Вы не можете начинать темы
Вы не можете отвечать на сообщения
Вы не можете редактировать свои сообщения
Вы не можете удалять свои сообщения
Вы не можете голосовать в опросах
Вы не можете прикреплять файлы к сообщениям
Вы не можете скачивать файлы