NG: Суперсооружения Третьего рейха / Nazi Megastructures (Megastructures: Nazi Mega Weapons) [сезон 2 серии 1-6 из 6] (Гари Джонстон, Кристофер Спенсер, Люк МакЛагхлин) [2014 г., Документальный, история, IPTVRip]

 
Автор Сообщение

skorpionN ®

Пол:

Стаж: 1 год 8 месяцев

Сообщений: 586



Награды: 4 (Подробнее)

Mega Seeder 3 (Количество: 1) Mega Seeder 2 (Количество: 1) Top Releaser 2 (Количество: 1)
Торрент-статистика

Создавать темы 25-Мар-2015 15:44

[Цитировать]

NG: Суперсооружения Третьего рейха / Nazi Megastructures (Megastructures: Nazi Mega Weapons) [сезон 2 серии 1-6 из 6]
Год выпуска: 2014
Страна: США, Darlow Smithson Productions Limited for PBS and National Geographic Channels
Жанр: Документальный, история
Продолжительность: 6x~00:43:59
Перевод: Профессиональный (одноголосый) - озвучено на студии "Велес", текст читал Михаил Хрусталёв
Режиссер: Гари Джонстон, Кристофер Спенсер, Люк МакЛагхлин
В ролях: Эрик Бар, Филип Даланси, Адам Дженн, Майкл Колтес, Крис Вилсон, Брандо Бавир, Корстен Нейс
Качество: IPTVRip
Формат: AVI
Видео кодек: XviD
Аудио кодек: AC3
Видео: 720x400 25fps 1800kbps
Аудио: AC3, 2 ch, 192kbps
Описание: В стремлении к мировому господству нацисты построили некоторые из самых амбициозных и прогрессивных образцов боевой техники, а также разработали самые злодейские технологии в истории; создали продвинутые машины террора, огромные оборонительные системы и оружие массового уничтожения, чтобы завоевать континент и выиграть войну. Этот сериал о Второй Мировой войне рассказывает о ней с уникальной, новой точки зрения. В 6 эпизодах мы раскрываем секреты 6 знаковых инженерных и технических мегасооружений нацистов, рассказывая истории конструкторов и инженеров, которые помогли создать их, и, показывая, как эти сооружения дали направление одному из самых смертоносных конфликтов в истории.
Список серий:

01. Фау-1. Ракета возмездия Гитлера / V1: Hitler's Vengeance Missile

Это история о первой в мире крылатой ракете. В отместку за бомбардировки Союзников Гитлер приказал разработать «Фау-1». Смертоносная бомба, появление которой изменило историю и совершило революцию в военной промышленности.

02. Волчье логово / The Wolf's Lair

"Волчье логово", тайная штаб-квартира из бетона и стали, была в эпицентре планов мирового господства и являлась ключом к конспирации нацистов.

03. СС Гиммлера / The SS

В стремлении к мировому господству фашистская Германия создала одни из самых мощных военных машин и смертоносных технологий в истории.

04. Гитлеровская линия Зигфрида / Hitler's Siegfried Line

В 1938 году немецкая армия начала работы по обеспечению укреплений западной границы Германии с Францией. Этот огромный, смертельный комплекс, состоящий из пояса бункеров, противотанковых ловушек, минных полей, огневых точек и дорожных блоков в пять раз длиннее стены Адриана и предназначен для защиты Отечества. Кампания по прорыву линии Зигфрида, протяженностью в 630 км, велась более шести месяцев и унесла жизни 140000 американских военных.

05. Мегакорабли Гитлера / Hitler's Megaships

"Бисмарк" и "Тирпиц" - крупнейшие боевые корабли того времени, гордость и символ мощи Третьего рейха, являлись важным объектом охоты Союзников.

06. Камикадзе / Kamikaze Suicide Bombers

В 1944 Япония находилась на грани поражения, и её военные прибегли к новой отчаянной тактике: использованию самолетов-снарядов и человеко-торпед.

Скриншоты


MediaInfo:

Формат : AVI
Формат/Информация : Audio Video Interleave
Размер файла : 631 Мбайт
Продолжительность : 43 м.
Общий поток : 2007 Кбит/сек
Библиотека кодирования : Boilsoft Joiner build 2411/release
Видео
Идентификатор : 0
Формат : MPEG-4 Visual
Профиль формата : Advanced Simple@L5
Параметр BVOP формата : 2
Параметр QPel формата : Нет
Параметр GMC формата : Без точки перехода
Параметр матрицы формата : Default (H.263)
Идентификатор кодека : DX50
Идентификатор кодека/Подсказка : DivX 5
Продолжительность : 43 м.
Битрейт : 1805 Кбит/сек
Ширина : 720 пикселей
Высота : 400 пикселей
Соотношение сторон : 16:9
Частота кадров : 25,000 кадров/сек
Цветовое пространство : YUV
Субдискретизация насыщенности : 4:2:0
Битовая глубина : 8 бит
Тип развёртки : Прогрессивная
Метод сжатия : С потерями
Бит/(Пиксели*Кадры) : 0.251
Размер потока : 568 Мбайт (90%)
Библиотека кодирования : XviD 73
Аудио
Идентификатор : 1
Формат : AC-3
Формат/Информация : Audio Coding 3
Расширение режима : CM (complete main)
Параметр Endianness формата : Big
Идентификатор кодека : 2000
Продолжительность : 43 м.
Вид битрейта : Постоянный
Битрейт : 192 Кбит/сек
Каналы : 2 канала
Расположение каналов : Front: L R
Частота : 48,0 КГц
Битовая глубина : 16 бит
Метод сжатия : С потерями
Размер потока : 60,4 Мбайт (10%)
Выравнивание : Разделение по промежуткам
Продолжительность промежутка : 40 мс. (1,00 видеокадр)
Время предзагрузки промежутка : 500 мс.

Внимание:

Раздача ведётся путём добавления новых серий; при каждом добавлении создаётся новый торрент. Чтобы начать докачку новой серии, пользователям необходимо сделать следующее:
- Остановить скачивание.
- Удалить старый торрент у себя из клиента (старые серии удалять не надо).
- Скачать новый торрент и запустить его у себя в клиенте вместо старого, при этом указать клиенту путь в старую папку куда и должно происходить скачивание новых серий.
Авторство релиза - alf62


Последний раз редактировалось: skorpionN (2015-04-08 09:17), всего редактировалось 7 раз(а)
[Профиль] [ЛС]

skorpionN ®

Пол:

Стаж: 1 год 8 месяцев

Сообщений: 586



Награды: 4 (Подробнее)

Mega Seeder 2 (Количество: 1) Mega Seeder 1 (Количество: 1) Top Releaser 2 (Количество: 1)
Торрент-статистика

Создавать темы 30-Мар-2015 19:31 (спустя 5 дней)

[Цитировать]

Сезон окончен
[Профиль] [ЛС]

KiruhaDelMar

Стаж: 1 год 8 месяцев

Сообщений: 246



Награды: Нет

Торрент-статистика

Создавать темы 08-Апр-2015 16:54 (спустя 8 дней)

[Цитировать]

Не понял , шо за телодвижения непонятные
[Профиль] [ЛС]
Кто просматривает тему:

Показать сообщения:    

Текущее время: Сегодня 08:32

Часовой пояс: GMT



Вы не можете начинать темы
Вы не можете отвечать на сообщения
Вы не можете редактировать свои сообщения
Вы не можете удалять свои сообщения
Вы не можете голосовать в опросах
Вы не можете прикреплять файлы к сообщениям
Вы не можете скачивать файлы