NG: Расследования авиакатастроф / Mayday / Air Crash Investigation (сезоны 1-13) (108 серия из 108) [2003-2014, документальный, HDTVRip 720p]

 
Автор Сообщение

TorrentFilm ®

Пол:

Стаж: 1 год 11 месяцев

Сообщений: 7741



Награды: Нет

Торрент-статистика

Создавать темы 07-Янв-2015 00:00

[Цитировать]

NG: Air Crash Investigation / Mayday / Расследования авиакатастроф / сезоны 1-13 (108 серия из 108)
Год выпуска: 2003-2014
Страна: Канада
Жанр: документальный
Продолжительность: ~ 00:47:00
Перевод: Профессиональный (двухголосый закадровый)
Русские субтитры: нет
Описание: Сериал о наиболее громких и загадочных катастрофах в истории гражданской авиации.
Наиболее полную информацию о сериале можно получить здесь List of Mayday episodes, для фанатов рекомендую именно этот сайт.
Есть русская, более лаконичная версия Список эпизодов телесериала «Расследования авиакатастроф»
Всего снято 108 серий, из них все 108 в данной раздаче.
Доп. информация: Рипы взяты с иностранных ресурсов. Русские дорожки синхронизировал sokolmy2
Сэмпл: http://multi-up.com/924015
Качество: HDTVRip 720p
формат: MKV
Видео: 1280х720 (1,78:1), 25 fps, AVC (H.264) ~3033 kbps avg, 0.132 bit/pixel
Аудио 1: Russian (48 KHz, AAC-LC, 2 ch, ~128 Kbps) (двухголосый)
Аудио 2: English (48 KHz, AC3, 6 ch, ~384 Kbps) (оригинал, в части серий на оригинальную дорожку наложен немецкий, испанский или итальянский перевод)
Формат субтитров: softsub (SRT)

Список выпусков/серийсезон 01

1-01 Незапертая дверь в смерть (Unlocking Disaster)
1-02 Наперегонки с бурей (Racing the Storm)
1-03 Полет с пустым баком (Flying On Empty)
1-04 Пожар на борту (Fire On Board)
1-05 Полет вслепую (Flying Blind)
1-06 Пике над океаном (Cutting Corners)

сезон 02

2-01 За бортом (Blow Out)
2-02 Раненая птица (A Wounded Bird)
2-03 Захват самолета (The Killing Machine)
2-04 Столкновение в небе (Mid-Air Collision)
2-05 Столкновение с горой (Crash on the Mountain)
2-06 Роковая задержка (Deadly Delay)

сезон 03

3-01 На волосок от гибели (Hanging by a Thread)
3-02 Атака над Багдадом (Attack Over Baghdad)
3-03 Потеря контроля (Out of Control)
3-04 Нападение самоубийцы (Fight for Your Life)
3-05 Бомба на борту (Bomb on Board)
3-06 Ошибка в идентификации (Mistaken Identity)
3-07 Авария вертолета (Helicopter Down)
3-08 EgyptAir 990 (Death and Denial)
3-09 Ребенок за штурвалом лайнера (Kid in the Cockpit)
3-10 Столкновение поездов (Collision Course)
3-11 Крушение греческого парома (Head On Collision)
3-12 Сорвавшийся поезд (Runaway Train)
3-13 Угон самолета в Африке (Ocean Landing)

сезон 04

4-01 Чудесное спасение (Desperate Escape)
4-02 Все двигатели отказали (Falling from the Sky)
4-03 Схватка с огнем (Fire Fight)
4-04 Посадка вслепую (Final Approach)
4-05 Скрытая опасность (Hidden Danger)
4-06 Паника над Тихим океаном (Panic over the Pacific)
4-07 Пикирование в бездну (Vertigo)
4-08 Самолет-призрак (Ghost Plane)
4-09 Столкновение над Лос-Анджелесом (Out of Sight)
4-10 Исчезновение рейса (Fog of War)

сезон 05

5-01 За закрытыми дверями (Behind Closed Doors)
5-02 Роковое приземление (Gimli Glider)
5-03 Почему самолет рухнул на землю (Invisible Killer)
5-04 Злополучный груз (Fanning the Flames)
5-05 Мертвый груз (Dead Weight)
5-06 Южная буря (Southern Storm)
5-07 Взрывоопасная улика (Explosive Evidence)
5-08 Самолет, который молчал (Mixed Signals)
5-09 Без управления (Fatal Distraction)
5-10 Радиомолчание (Phantom Strike)

сезон 06

6-01 Разорванный небом (Ripped Apart)
6-02 Роковой дефект (Fatal Flaw)
6-03 Кто управляет самолетом (Who's Flying the Plane)

сезон 07

07-01 Распавшийся за секунды (Scratching the Surface)
07-02 Локерби (Lockerbie Disaster)
07-03 Смертельный приз (Blown Apart)
07-04 Спасение детей (Operation Babylift)
07-05 Лобовое столкновение (Sight Unseen)
07-06 Исчезнувший самолет (Flight 574. Lost)
07-07 Обледенение в воздухе (Frozen in Flight)
07-08 Аварийное приводнение (Falling Fast)

сезон 08

8-01 Обрыв связи (System Breakdown)
8-02 Смертельный ураган (Cruel Skies)

сезон 09

9-01 Паника на взлетной полосе (Panic on the Runway)
9-02 Хаос в кабине (Alarming Silence)
9-03 Пилот или самолет (Pilot vs. Plane)
9-04 Ошибка диспетчера (Cleared for Disaster)
9-05 Цель уничтожена (Target is Destroyed)
9-06 В снежном плену (Cold Case)
9-07 Спрограммированное падение (The Final Blow)
9-08 Майамская загадка (Miami Mistery)

сезон 10

10-01 Последняя ошибка пилота (Cockpit Failure)
10-02 Загадка Хитроу (The Heathrow Enigma)
10-03 Коварный лед (Pilot Betrayed)
10-04 Смертельно уставшие (Dead Tired)
10-05 Посадка на Гудзон (Hudson River Runway)
10-06 Кто управлял самолетом (Who's In Control)

сезон 11

11-01 Катастрофа при посадке (Deadly Reputation)
11-02 Роковая ошибка (The Plane That Flew Too High)
11-03 Двойственное решение комиссии (Split Decision)
11-04 Распавшийся в небе (Breakup Over Texas)
11-05 Мюнхенская трагедия (Munich Air Disaster)
11-06 Полет на грани падения (Turning Point)
11-07 Смертельный пилотаж (Bad Attitude)
11-08 Мертвая зона (Blind Spot)
11-09 Ад в пустыне (Under Pressure)
11-10 В поисках виновных (I'm The Problem)
11-11 Посадка невозможна (Nowhere to Land)
11-12 Невидимый самолет (The Invisible Plane)
11-13 Взрыв над Сиу-Сити (Impossible Landing)

сезон 12

12-01 Борьба за управление (Fight for Control)
12-02 Пожар в грузовом отсеке (Fire in the Hold)
12-03 Ураганный взлет (Caution to the Wind)
12-04 Доведенный до предела (Pushed to the Limit)
12-05 Посадка вслепую (Blind Landing)
12-06 Катастрофа в Большом Каньоне (Grand Canyon Disaster)
12-07 Самая страшная авиакатастрофа в США (Catastrophe at O'Hare)
12-08 Фатальная фиксация (Focused on Failure)
12-09 Трагедия Локомотива (Lokomotiv Hockey Team Disaster)
12-10 Гибель президента (Death of the President)
12-11 Курс на смерть (Heading to Disaster)
12-12 28 секунд на выживание (28 Seconds to Survive)
12-13 Air France 447. Пропавший рейс (Air France 447. Vanished)

сезон 13

13-01 Борьба за жизнь (Britain's Worst Air Crash)
13-02 Молчание Фантома (Speed Trap)
13-03 Трудности перевода (Lost in Translation)
13-04 Трагедия на Потомаке (Disaster on the Potomac)
13-05 Катастрофа в Квинсе (Queens Catastrophe)
13-06 В эпицентре бури (Into the Eye of the Storm)
13-07 Кошмар в раю (Terror In Paradise)
13-08 Смертельный тест (Deadly Test)
13-09 Бойня над Средиземным морем (Massacre Over The Mediterranean)
13-10 Небесный Титаник (Qantas 32. Titanic In The Sky)

MediaInfo

Общее
Полное имя : D:\КИНО\Air Crash Investigation_HD\Air Crash Investigation_HD.torrent
Размер файла : 14,0 Кбайт
Общее
Уникальный идентификатор : 211312682095873288025043327532500556635 (0x9EF9579AECDFAB99A78491B1B5749B5B)
Полное имя : D:\КИНО\Air Crash Investigation_HD\season 02\2-02 Раненая птица (A Wounded Bird).mkv
Формат : Matroska
Версия формата : Version 4 / Version 2
Размер файла : 1,11 Гбайт
Продолжительность : 47 м.
Общий поток : 3385 Кбит/сек
Дата кодирования : UTC 2013-11-19 16:30:10
Программа кодирования : mkvmerge v6.5.0 ('Isn't she lovely') built on Oct 20 2013 12:50:05
Библиотека кодирования : libebml v1.3.0 + libmatroska v1.4.1
Видео
Идентификатор : 1
Формат : AVC
Формат/Информация : Advanced Video Codec
Профиль формата : High@L3.1
Параметр CABAC формата : Да
Параметр ReFrames формата : 4 кадра
Идентификатор кодека : V_MPEG4/ISO/AVC
Продолжительность : 47 м.
Номинальный битрейт : 3031 Кбит/сек
Ширина : 1280 пикселей
Высота : 720 пикселей
Соотношение сторон : 16:9
Режим частоты кадров : Постоянный
Частота кадров : 25,000 кадров/сек
Цветовое пространство : YUV
Субдискретизация насыщенности : 4:2:0
Битовая глубина : 8 бит
Тип развёртки : Прогрессивная
Бит/(Пиксели*Кадры) : 0.132
Библиотека кодирования : x264 core 125 r2208 d9d2288
Настройки программы : cabac=1 / ref=3 / deblock=1:0:0 / analyse=0x3:0x111 / me=hex / subme=7 / psy=1 / psy_rd=1.00:0.00 / mixed_ref=1 / me_range=16 / chroma_me=1 / trellis=1 / 8x8dct=1 / cqm=0 / deadzone=21,11 / fast_pskip=1 / chroma_qp_offset=-2 / threads=3 / lookahead_threads=1 / sliced_threads=0 / nr=0 / decimate=1 / interlaced=0 / bluray_compat=0 / constrained_intra=0 / bframes=3 / b_pyramid=2 / b_adapt=1 / b_bias=0 / direct=1 / weightb=1 / open_gop=0 / weightp=2 / keyint=250 / keyint_min=25 / scenecut=40 / intra_refresh=0 / rc_lookahead=40 / rc=2pass / mbtree=1 / bitrate=3031 / ratetol=1.0 / qcomp=0.60 / qpmin=0 / qpmax=69 / qpstep=4 / cplxblur=20.0 / qblur=0.5 / ip_ratio=1.40 / aq=1:1.00
Язык : English
Default : Да
Forced : Нет
Аудио #1
Идентификатор : 2
Формат : AAC
Формат/Информация : Advanced Audio Codec
Профиль формата : LC
Идентификатор кодека : A_AAC
Продолжительность : 47 м.
Каналы : 2 канала
Расположение каналов : Front: L R
Частота : 48,0 КГц
Метод сжатия : С потерями
Задержка видео : 9 мс.
Язык : Russian
Default : Нет
Forced : Нет
Аудио #2
Идентификатор : 3
Формат : AC-3
Формат/Информация : Audio Coding 3
Расширение режима : CM (complete main)
Параметр Endianness формата : Big
Идентификатор кодека : A_AC3
Продолжительность : 47 м.
Вид битрейта : Постоянный
Битрейт : 224 Кбит/сек
Каналы : 2 канала
Расположение каналов : Front: L R
Частота : 48,0 КГц
Битовая глубина : 16 бит
Метод сжатия : С потерями
Размер потока : 75,3 Мбайт (7%)
Язык : English
Default : Нет
Forced : Нет
Текст
Идентификатор : 4
Формат : UTF-8
Идентификатор кодека : S_TEXT/UTF8
Идентификатор кодека/Информация : UTF-8 Plain Text
Язык : English
Default : Нет
Forced : Нет
Меню
00:00:00.054 : en:00:00:00.054
Общее
Уникальный идентификатор : 226576218081900859439105325341841827052 (0xAA74FE07F657235A98EC78A71DB024EC)
Полное имя : D:\КИНО\Air Crash Investigation_HD\season 02\2-04 Столкновение в небе (Mid-Air Collision).mkv
Формат : Matroska
Версия формата : Version 4 / Version 2
Размер файла : 1,10 Гбайт
Продолжительность : 46 м.
Общий поток : 3353 Кбит/сек
Дата кодирования : UTC 2013-11-16 19:28:16
Программа кодирования : mkvmerge v6.5.0 ('Isn't she lovely') built on Oct 20 2013 12:50:05
Библиотека кодирования : libebml v1.3.0 + libmatroska v1.4.1
Видео
Идентификатор : 1
Формат : AVC
Формат/Информация : Advanced Video Codec
Профиль формата : High@L3.1
Параметр CABAC формата : Да
Параметр ReFrames формата : 4 кадра
Идентификатор кодека : V_MPEG4/ISO/AVC
Продолжительность : 46 м.
Номинальный битрейт : 3033 Кбит/сек
Ширина : 1280 пикселей
Высота : 720 пикселей
Соотношение сторон : 16:9
Режим частоты кадров : Постоянный
Частота кадров : 25,000 кадров/сек
Цветовое пространство : YUV
Субдискретизация насыщенности : 4:2:0
Битовая глубина : 8 бит
Тип развёртки : Прогрессивная
Бит/(Пиксели*Кадры) : 0.132
Библиотека кодирования : x264 core 125 r2208 d9d2288
Настройки программы : cabac=1 / ref=3 / deblock=1:0:0 / analyse=0x3:0x111 / me=hex / subme=7 / psy=1 / psy_rd=1.00:0.00 / mixed_ref=1 / me_range=16 / chroma_me=1 / trellis=1 / 8x8dct=1 / cqm=0 / deadzone=21,11 / fast_pskip=1 / chroma_qp_offset=-2 / threads=3 / lookahead_threads=1 / sliced_threads=0 / nr=0 / decimate=1 / interlaced=0 / bluray_compat=0 / constrained_intra=0 / bframes=3 / b_pyramid=2 / b_adapt=1 / b_bias=0 / direct=1 / weightb=1 / open_gop=0 / weightp=2 / keyint=250 / keyint_min=25 / scenecut=40 / intra_refresh=0 / rc_lookahead=40 / rc=2pass / mbtree=1 / bitrate=3033 / ratetol=1.0 / qcomp=0.60 / qpmin=0 / qpmax=69 / qpstep=4 / cplxblur=20.0 / qblur=0.5 / ip_ratio=1.40 / aq=1:1.00
Default : Да
Forced : Нет
Аудио #1
Идентификатор : 2
Формат : AAC
Формат/Информация : Advanced Audio Codec
Профиль формата : LC
Идентификатор кодека : A_AAC
Продолжительность : 46 м.
Каналы : 2 канала
Расположение каналов : Front: L R
Частота : 48,0 КГц
Метод сжатия : С потерями
Задержка видео : 9 мс.
Язык : Russian
Default : Нет
Forced : Нет
Аудио #2
Идентификатор : 3
Формат : AAC
Формат/Информация : Advanced Audio Codec
Профиль формата : LC
Идентификатор кодека : A_AAC
Продолжительность : 46 м.
Каналы : 2 канала
Расположение каналов : Front: L R
Частота : 48,0 КГц
Метод сжатия : С потерями
Язык : English
Default : Нет
Forced : Нет
Текст
Идентификатор : 4
Формат : UTF-8
Идентификатор кодека : S_TEXT/UTF8
Идентификатор кодека/Информация : UTF-8 Plain Text
Язык : English
Default : Нет
Forced : Нет
Меню
00:00:00.054 : en:00:00:00.054
Общее
Уникальный идентификатор : 182060035308631071875509155755811774893 (0x88F77CC421534C0399B6E621F0ADA1AD)
Полное имя : D:\КИНО\Air Crash Investigation_HD\season 02\2-05 Столкновение с горой (Crash on the Mountain).mkv
Формат : Matroska
Версия формата : Version 4 / Version 2
Размер файла : 1,10 Гбайт
Продолжительность : 46 м.
Общий поток : 3354 Кбит/сек
Дата кодирования : UTC 2013-11-20 19:03:53
Программа кодирования : mkvmerge v6.5.0 ('Isn't she lovely') built on Oct 20 2013 12:50:05
Библиотека кодирования : libebml v1.3.0 + libmatroska v1.4.1
Видео
Идентификатор : 1
Формат : AVC
Формат/Информация : Advanced Video Codec
Профиль формата : High@L3.1
Параметр CABAC формата : Да
Параметр ReFrames формата : 4 кадра
Идентификатор кодека : V_MPEG4/ISO/AVC
Продолжительность : 46 м.
Номинальный битрейт : 3034 Кбит/сек
Ширина : 1280 пикселей
Высота : 720 пикселей
Соотношение сторон : 16:9
Режим частоты кадров : Постоянный
Частота кадров : 25,000 кадров/сек
Цветовое пространство : YUV
Субдискретизация насыщенности : 4:2:0
Битовая глубина : 8 бит
Тип развёртки : Прогрессивная
Бит/(Пиксели*Кадры) : 0.132
Библиотека кодирования : x264 core 125 r2208 d9d2288
Настройки программы : cabac=1 / ref=3 / deblock=1:0:0 / analyse=0x3:0x111 / me=hex / subme=7 / psy=1 / psy_rd=1.00:0.00 / mixed_ref=1 / me_range=16 / chroma_me=1 / trellis=1 / 8x8dct=1 / cqm=0 / deadzone=21,11 / fast_pskip=1 / chroma_qp_offset=-2 / threads=3 / lookahead_threads=1 / sliced_threads=0 / nr=0 / decimate=1 / interlaced=0 / bluray_compat=0 / constrained_intra=0 / bframes=3 / b_pyramid=2 / b_adapt=1 / b_bias=0 / direct=1 / weightb=1 / open_gop=0 / weightp=2 / keyint=250 / keyint_min=25 / scenecut=40 / intra_refresh=0 / rc_lookahead=40 / rc=2pass / mbtree=1 / bitrate=3034 / ratetol=1.0 / qcomp=0.60 / qpmin=0 / qpmax=69 / qpstep=4 / cplxblur=20.0 / qblur=0.5 / ip_ratio=1.40 / aq=1:1.00
Default : Да
Forced : Нет
Аудио #1
Идентификатор : 2
Формат : AAC
Формат/Информация : Advanced Audio Codec
Профиль формата : LC
Идентификатор кодека : A_AAC
Продолжительность : 46 м.
Каналы : 2 канала
Расположение каналов : Front: L R
Частота : 48,0 КГц
Метод сжатия : С потерями
Задержка видео : 9 мс.
Язык : Russian
Default : Нет
Forced : Нет
Аудио #2
Идентификатор : 3
Формат : AAC
Формат/Информация : Advanced Audio Codec
Профиль формата : LC
Идентификатор кодека : A_AAC
Продолжительность : 46 м.
Каналы : 2 канала
Расположение каналов : Front: L R
Частота : 48,0 КГц
Метод сжатия : С потерями
Язык : English
Default : Нет
Forced : Нет
Текст
Идентификатор : 4
Формат : UTF-8
Идентификатор кодека : S_TEXT/UTF8
Идентификатор кодека/Информация : UTF-8 Plain Text
Язык : English
Default : Нет
Forced : Нет
Меню
00:00:00.054 : en:00:00:00.054
Общее
Уникальный идентификатор : 175020904536049636834587913157903541328 (0x83ABCCD2F56284BF9B1E51AEF1E66450)
Полное имя : D:\КИНО\Air Crash Investigation_HD\season 02\2-06 Роковая задержка (Deadly Delay).mkv
Формат : Matroska
Версия формата : Version 4 / Version 2
Размер файла : 1,10 Гбайт
Продолжительность : 46 м.
Общий поток : 3353 Кбит/сек
Дата кодирования : UTC 2013-11-21 16:50:02
Программа кодирования : mkvmerge v6.5.0 ('Isn't she lovely') built on Oct 20 2013 12:50:05
Библиотека кодирования : libebml v1.3.0 + libmatroska v1.4.1
Видео
Идентификатор : 1
Формат : AVC
Формат/Информация : Advanced Video Codec
Профиль формата : High@L4.1
Параметр CABAC формата : Да
Параметр ReFrames формата : 5 кадров
Идентификатор кодека : V_MPEG4/ISO/AVC
Продолжительность : 46 м.
Номинальный битрейт : 3034 Кбит/сек
Ширина : 1280 пикселей
Высота : 720 пикселей
Соотношение сторон : 16:9
Режим частоты кадров : Постоянный
Частота кадров : 25,000 кадров/сек
Цветовое пространство : YUV
Субдискретизация насыщенности : 4:2:0
Битовая глубина : 8 бит
Тип развёртки : Прогрессивная
Бит/(Пиксели*Кадры) : 0.132
Библиотека кодирования : x264 core 129 r2230 1cffe9f
Настройки программы : cabac=1 / ref=5 / deblock=1:-3:-3 / analyse=0x3:0x113 / me=umh / subme=7 / psy=1 / psy_rd=1.00:0.00 / mixed_ref=1 / me_range=16 / chroma_me=1 / trellis=1 / 8x8dct=1 / cqm=0 / deadzone=21,11 / fast_pskip=0 / chroma_qp_offset=-2 / threads=6 / lookahead_threads=1 / sliced_threads=0 / nr=0 / decimate=1 / interlaced=0 / bluray_compat=0 / constrained_intra=0 / bframes=3 / b_pyramid=2 / b_adapt=1 / b_bias=0 / direct=1 / weightb=1 / open_gop=0 / weightp=2 / keyint=250 / keyint_min=25 / scenecut=40 / intra_refresh=0 / rc_lookahead=40 / rc=2pass / mbtree=1 / bitrate=3034 / ratetol=1.0 / qcomp=0.60 / qpmin=0 / qpmax=69 / qpstep=4 / cplxblur=20.0 / qblur=0.5 / ip_ratio=1.40 / aq=1:1.00
Default : Да
Forced : Нет
Аудио #1
Идентификатор : 2
Формат : AAC
Формат/Информация : Advanced Audio Codec
Профиль формата : LC
Идентификатор кодека : A_AAC
Продолжительность : 46 м.
Каналы : 2 канала
Расположение каналов : Front: L R
Частота : 48,0 КГц
Метод сжатия : С потерями
Задержка видео : 9 мс.
Язык : Russian
Default : Нет
Forced : Нет
Аудио #2
Идентификатор : 3
Формат : AAC
Формат/Информация : Advanced Audio Codec
Профиль формата : LC
Идентификатор кодека : A_AAC
Продолжительность : 46 м.
Каналы : 2 канала
Расположение каналов : Front: L R
Частота : 48,0 КГц
Метод сжатия : С потерями
Язык : English
Default : Нет
Forced : Нет
Меню
00:00:00.054 : en:00:00:00.054
Общее
Уникальный идентификатор : 180737716626840650619954353812746810983 (0x87F8D16BEEE9958DBCF1E36617DC3667)
Полное имя : D:\КИНО\Air Crash Investigation_HD\season 12\12-09 Трагедия Локомотива (Lokomotiv Hockey Team Disaster).mkv
Формат : Matroska
Версия формата : Version 4 / Version 2
Размер файла : 916 Мбайт
Продолжительность : 44 м.
Общий поток : 2848 Кбит/сек
Дата кодирования : UTC 2013-11-22 15:14:27
Программа кодирования : mkvmerge v6.5.0 ('Isn't she lovely') built on Oct 20 2013 12:50:05
Библиотека кодирования : libebml v1.3.0 + libmatroska v1.4.1
Видео
Идентификатор : 1
Формат : AVC
Формат/Информация : Advanced Video Codec
Профиль формата : High@L4.1
Параметр CABAC формата : Да
Параметр ReFrames формата : 5 кадров
Идентификатор кодека : V_MPEG4/ISO/AVC
Продолжительность : 44 м.
Ширина : 1280 пикселей
Высота : 720 пикселей
Соотношение сторон : 16:9
Режим частоты кадров : Постоянный
Частота кадров : 25,000 кадров/сек
Цветовое пространство : YUV
Субдискретизация насыщенности : 4:2:0
Битовая глубина : 8 бит
Тип развёртки : Прогрессивная
Библиотека кодирования : x264 core 140 r2377 1ca7bb9
Настройки программы : cabac=1 / ref=5 / deblock=1:-2:-1 / analyse=0x3:0x113 / me=umh / subme=9 / psy=1 / psy_rd=1.00:0.00 / mixed_ref=1 / me_range=16 / chroma_me=1 / trellis=1 / 8x8dct=1 / cqm=0 / deadzone=21,11 / fast_pskip=1 / chroma_qp_offset=-2 / threads=12 / lookahead_threads=1 / sliced_threads=0 / nr=0 / decimate=1 / interlaced=0 / bluray_compat=0 / constrained_intra=0 / bframes=16 / b_pyramid=2 / b_adapt=1 / b_bias=0 / direct=1 / weightb=1 / open_gop=0 / weightp=2 / keyint=250 / keyint_min=23 / scenecut=40 / intra_refresh=0 / rc_lookahead=40 / rc=crf / mbtree=1 / crf=21.0 / qcomp=0.60 / qpmin=0 / qpmax=69 / qpstep=4 / ip_ratio=1.40 / aq=1:1.00
Язык : English
Default : Да
Forced : Нет
Аудио #1
Идентификатор : 2
Формат : AAC
Формат/Информация : Advanced Audio Codec
Профиль формата : LC
Идентификатор кодека : A_AAC
Продолжительность : 44 м.
Каналы : 2 канала
Расположение каналов : Front: L R
Частота : 48,0 КГц
Метод сжатия : С потерями
Задержка видео : 9 мс.
Язык : Russian
Default : Нет
Forced : Нет
Аудио #2
Идентификатор : 3
Формат : AC-3
Формат/Информация : Audio Coding 3
Расширение режима : CM (complete main)
Параметр Endianness формата : Big
Идентификатор кодека : A_AC3
Продолжительность : 44 м.
Вид битрейта : Постоянный
Битрейт : 384 Кбит/сек
Каналы : 6 каналов
Расположение каналов : Front: L C R, Side: L R, LFE
Частота : 48,0 КГц
Битовая глубина : 16 бит
Метод сжатия : С потерями
Размер потока : 124 Мбайт (13%)
Язык : English
Default : Нет
Forced : Нет

Скриншоты

[Профиль] [ЛС]
Показать сообщения:    

Текущее время: Сегодня 22:36

Часовой пояс: GMT



Вы не можете начинать темы
Вы не можете отвечать на сообщения
Вы не можете редактировать свои сообщения
Вы не можете удалять свои сообщения
Вы не можете голосовать в опросах
Вы не можете прикреплять файлы к сообщениям
Вы не можете скачивать файлы