NG: Путешествие на Европу / Journey to Europa (Марк Маннуччи / Mark Mannucci) [2010, Документальный, космос, HDTV 1080i]

 
Автор Сообщение

TorrentFilm ®

Пол:

Стаж: 2 года

Сообщений: 7741



Награды: Нет

Торрент-статистика

Создавать темы 12-Апр-2015 00:03

[Цитировать]

NG: Путешествие на Европу / Journey to Europa
Год выпуска: 2010
Страна: США
Студия: Mannucci Inc., National Geographic Television
Жанр: Документальный, космос
Продолжительность: 00:44:49
Перевод: Профессиональный (одноголосый закадровый)
Доп. инфо о переводе: ARK ТВ/Михаил Тихонов
Русские субтитры: нет
Режиссер: Марк Маннуччи / Mark Mannucci
Описание: Европа... Крошечный спутник Юпитера. Ледяной мир, являющийся идеальной целью для поиска жизни. Если мы найдем ее на Европе - это покажет, что, вероятнее всего, все солнечные системы галактики изобилуют жизнью. Но чтобы найти эту жизнь, нам нужно установить контакт и исследовать океан глубиной около 100 километров. Сейчас мы не знаем, как протопить путь сквозь километры льда, чтобы добраться до дна океана Европы, но нет ничего технологически невозможного. Отправимся в будущее, в поисках жизни на далеком спутнике Юпитера.
Доп. информация: Релиз группы Сведение дорожек - nyctalus
Скачать: Сэмпл
Тип релиза: HDTV 1080i
Контейнер: TS
Видео: MPEG4 AVC, 1920x1080 (16:9), 5 040 Kbps, 25.000 fps
Аудио: Русский, АС3, 2.0, 48 kHz, 192 Kbps
Аудио 2: English, АС3, 2.0, 48 kHz, 192 Kbps

MediaInfo

ОбщееИдентификатор : 1 (0x1)Полное имя : Journey to Europa (2010) HDTV 1080i RusEng.tsФормат : MPEG-TSРазмер файла : 1,79 ГбайтПродолжительность : 44 м.Режим общего битрейта : ПеременныйОбщий поток : 5710 Кбит/секМаксимальный общий битрейт : 35,5 Мбит/сек
ВидеоИдентификатор : 4113 (0x1011)Идентификатор меню : 1 (0x1)Формат : AVCФормат/Информация : Advanced Video CodecПрофиль формата : High@L4.0Параметр CABAC формата : ДаПараметр ReFrames формата : 4 кадраИдентификатор кодека : 27Продолжительность : 44 м.Битрейт : 5040 Кбит/секШирина : 1920 пикселейВысота : 1080 пикселейСоотношение сторон : 16:9Частота кадров : 25,000 кадров/секСтандарт вещания : ComponentЦветовое пространство : YUVСубдискретизация насыщенности : 4:2:0Битовая глубина : 8 битТип развёртки : ЧересстрочнаяПорядок развёртки : Верхнее поле первоеБит/(Пиксели*Кадры) : 0.097Размер потока : 1,58 Гбайт (88%)Основные цвета : BT.709Характеристики трансфера : BT.709Коэффициенты матрицы : BT.709
Аудио #1Идентификатор : 4352 (0x1100)Идентификатор меню : 1 (0x1)Формат : AC-3Формат/Информация : Audio Coding 3Расширение режима : CM (complete main)Параметр Endianness формата : BigИдентификатор кодека : 129Продолжительность : 44 м.Вид битрейта : ПостоянныйБитрейт : 192 Кбит/секКаналы : 2 каналаРасположение каналов : Front: L RЧастота : 48,0 КГцБитовая глубина : 16 битМетод сжатия : С потерямиЗадержка видео : -40 мс.Размер потока : 61,8 Мбайт (3%)Язык : Russian
Аудио #2Идентификатор : 4353 (0x1101)Идентификатор меню : 1 (0x1)Формат : AC-3Формат/Информация : Audio Coding 3Расширение режима : CM (complete main)Параметр Endianness формата : BigИдентификатор кодека : 129Продолжительность : 44 м.Вид битрейта : ПостоянныйБитрейт : 192 Кбит/секКаналы : 2 каналаРасположение каналов : Front: L RЧастота : 48,0 КГцБитовая глубина : 16 битМетод сжатия : С потерямиЗадержка видео : -40 мс.Размер потока : 61,8 Мбайт (3%)Язык : English

Скриншоты


[Профиль] [ЛС]
Кто просматривает тему:

Показать сообщения:    

Текущее время: Сегодня 01:19

Часовой пояс: GMT



Вы не можете начинать темы
Вы не можете отвечать на сообщения
Вы не можете редактировать свои сообщения
Вы не можете удалять свои сообщения
Вы не можете голосовать в опросах
Вы не можете прикреплять файлы к сообщениям
Вы не можете скачивать файлы