NG: Прорыв / Breakthrough [серии 1-6 из 6] (Peter Berg) [2015 г., Документальный, научно-познавательный, SATRip]

 
Автор Сообщение

skorpionN ®

Пол:

Стаж: 1 год 8 месяцев

Сообщений: 586



Награды: 4 (Подробнее)

Top Releaser 2 (Количество: 1) Mega Seeder 1 (Количество: 1) Mega Seeder 2 (Количество: 1)
Торрент-статистика

Создавать темы 08-Ноя-2015 19:50

[Цитировать]

NG: Прорыв / Breakthrough [серии 1-6 из 6]
Год выпуска: 2015
Страна: США, Asylum Entertainment, Imagine Entertainment
Жанр: Документальный, научно-познавательный
Продолжительность: 6x~00:42:49
Перевод: Профессиональный (одноголосый), озвучено на студии Велес, текст читал Дмитрий Стрелков
Режиссер: Рон Ховард, Бретт Ратнет, Пол Джаматти, Акива Голдсман, Анджела Бассетт и Питер Берг
Качество: SATRip
Формат: AVI
Видео кодек: XviD
Аудио кодек: AC3
Видео: 720x400 25.00fps 1800 Kbps
Аудио: AC3, 2ch, 192 kbps, 48 kHz
Описание: ПРОРЫВ покажет вам пробуждающую работу мысли и воображение перспективу научных открытий в реальном времени.
В каждом эпизоде мы будем наблюдать за работой учёных и исследователей, работающих над передовыми проектами с огромным потенциалом: способные к трансформации приборы, решающие неотложные проблемы (как, например, разработка вакцины от вируса Эболы, поиски способа остановить эпилептические припадки или открытие нового метода сбора воды в африканской деревне, опустошённой из-за засухи).
С учётом значимости этих историй, каждая серия этой передачи снята одним из лучших режиссёров. Рон Ховард, Бретт Ратнет, Пол Джаматти, Акива Голдсман, Анджела Бассетт и Питер Берг — вот первые шестеро.
Помимо того, что сам научный прорыв на час захватывает ваше внимание, взгляд исследователей перед камерами и режиссёров — за кадром сливаются в уникальную линзу, через которую мы наблюдаем этот прорыв.
Подобно фильму «30 событий за 30 лет» телесети EXPN, режиссёры Прорыва имели желание и возможности привносить свою стилистику в каждую серию.
Список серий:

01. Борьба с пандемиями / Fighting Pamdemics

Новые технологии, разработанные учёными и экспертами в области медицины, в ближайшем будущем помогут найти лекарства от разных вирусов пандемии.

02. Больше чем человек / More Than Human

Революционные прорывы в биологии и технологиях делают нас сильнее, быстрее и умнее. Сможет ли слияние двух этих сфер сделать нас сверхлюдьми?

03. Мозг: последний рубеж / Decoding the Brain

Человеческий мозг известен, как самый сложный объект во Вселенной. Новые технологии позволяют узнавать всё больше о том, как он работает.

04. Век старения / The Age of Aging

Группа ведущих учёных считает, что они нашли то, что поможет замедлить процесс старения.

05. Энергия на грани / Energy on the Edge

Новое поколение изобретателей и предпринимателей находится в поиске инноваций, касающихся альтернативных видов топлива.

06. Водный Апокалипсис / Water Apocalypse

Воды всё меньше и меньше. Учёные и инженеры всего мира бьются над решением этой глобальной проблемы.

Скриншоты

MediaInfo:

Format : AVI
Format/Info : Audio Video Interleave
File size : 612 MiB
Duration : 42mn 48s
Overall bit rate : 1 999 Kbps
Writing application : TMPGEnc Video Mastering Works 5 Version. 5.0.6.38
Writing library : TMPGEnc Video Mastering Works 5 Version. 5.0.6.38
Video
ID : 0
Format : MPEG-4 Visual
Format profile : Advanced Simple@L5
Format settings, BVOP : 2
Format settings, QPel : No
Format settings, GMC : No warppoints
Format settings, Matrix : Default (H.263)
Muxing mode : Packed bitstream
Codec ID : XVID
Codec ID/Hint : XviD
Duration : 42mn 48s
Bit rate : 1 799 Kbps
Width : 720 pixels
Height : 400 pixels
Display aspect ratio : 16:9
Frame rate : 25.000 fps
Color space : YUV
Chroma subsampling : 4:2:0
Bit depth : 8 bits
Scan type : Progressive
Compression mode : Lossy
Bits/(Pixel*Frame) : 0.250
Stream size : 551 MiB (90%)
Writing library : XviD 73
Audio
ID : 1
Format : AC-3
Format/Info : Audio Coding 3
Mode extension : CM (complete main)
Format settings, Endianness : Big
Codec ID : 2000
Duration : 42mn 48s
Bit rate mode : Constant
Bit rate : 192 Kbps
Channel(s) : 2 channels
Channel positions : Front: L R
Sampling rate : 48.0 KHz
Bit depth : 16 bits
Compression mode : Lossy
Stream size : 58.8 MiB (10%)
Alignment : Aligned on interleaves
Interleave, duration : 240 ms (6.00 video frames)
Interleave, preload duration : 224 ms

Внимание:

Раздача ведётся путём добавления новых серий; при каждом добавлении создаётся новый торрент. Чтобы начать докачку новой серии, пользователям необходимо сделать следующее:
- Остановить скачивание.
- Удалить старый торрент у себя из клиента (старые серии удалять не надо).
- Скачать новый торрент и запустить его у себя в клиенте вместо старого, при этом указать клиенту путь в старую папку куда и должно происходить скачивание новых серий.
Добавлено
06. Водный Апокалипсис / Water Apocalypse
[Профиль] [ЛС]
Кто просматривает тему:

Показать сообщения:    

Текущее время: Сегодня 16:55

Часовой пояс: GMT



Вы не можете начинать темы
Вы не можете отвечать на сообщения
Вы не можете редактировать свои сообщения
Вы не можете удалять свои сообщения
Вы не можете голосовать в опросах
Вы не можете прикреплять файлы к сообщениям
Вы не можете скачивать файлы