NG: Подъем Атлантиды (Открытая Атлантида) / Atlantis rising (Simcha Jacobovici) [2017 г., Документальный, научно-популярный, исследования, история, HDTVRip-AVC 720p]

 
Автор Сообщение

skorpionN ®

Пол:

Стаж: 3 года 2 месяца

Сообщений: 943



Награды: 4 (Подробнее)

Mega Seeder 2 (Количество: 1) Mega Seeder 1 (Количество: 1) Mega Seeder 3 (Количество: 1)
Торрент-статистика

Создавать темы 19-Май-2017 10:11

[Цитировать]

NG: Подъем Атлантиды (Открытая Атлантида) / Atlantis rising
Год выпуска: 2017
Страна: Канада, Associated Producers
Жанр: Документальный, научно-популярный, исследования, история
Продолжительность: 01:33:44
Перевод: Профессиональный (одноголосый)
Режиссер: Simcha Jacobovici
В ролях: Simcha Jacobovici
Описание: В течение многих лет, люди задаются вопросом, где была легендарная Атлантида. Недавние находки могут стать прорывом в подсказках, ведущие к решению этой сложной головоломки.
Последние работы National Geographic под названием «Atlantis Rising» представляет широкий спектр исследований — от побережья Санторини до португальских Азорских островов. Создатели фильма с помощью имеющейся литературы, сравнивая различные теории о загадочной исчезнувшей цивилизации.
Никто не ожидал, что Атлантида сохранилась, но исследователи рассчитывают на открытие остатков зданий и предметов повседневного использования. Для исследования используют множество современных технологий, навигацию и специальные камеры.
Во время погружения в районе Гибралтарского пролива, ученые обнаружили огромный каменный якорь, который почти метр в ширину. Вероятно, ему около 4 тысяч. лет и был использован для стыковки больших кораблей. Профессор Ричард Фройнд из Университета Хартфорда подчеркивает, что это является уникальным объектом. На сегодняшний день найдето шесть таких якорей.
"Открытая Атлантида" - детективный триллер, который позволяет зрителю поучаствовать в поиске, обнаружении и исследовании различных артефактов. Археологические находки, спутниковые фотографии, находящиеся в свободном доступе манускрипты, а также результаты подводных раскопок.
Качество: HDTVRip-AVC
Формат: MKV
Видео кодек: H.264
Аудио кодек: AC3
Видео: 1280x720 25.00fps 4000 Kbps
Аудио: AC3 2ch, 48kHz, 192 kbps

Скриншоты


MediaInfo:

Format : Matroska
Format version : Version 4 / Version 2
File size : 2.74 GiB
Duration : 1 h 33 min
Overall bit rate mode : Variable
Overall bit rate : 4 185 kb/s
Encoded date : UTC 2017-05-18 19:57:39
Writing application : mkvmerge v6.9.1 ('Blue Panther') 64bit built on Apr 18 2014 18:23:38
Writing library : libebml v1.3.0 + libmatroska v1.4.1
Video
ID : 1
Format : AVC
Format/Info : Advanced Video Codec
Format profile : High@L4
Format settings, CABAC : Yes
Format settings, ReFrames : 3 frames
Codec ID : V_MPEG4/ISO/AVC
Duration : 1 h 33 min
Bit rate mode : Variable
Bit rate : 4 000 kb/s
Maximum bit rate : 8 000 kb/s
Width : 1 280 pixels
Height : 720 pixels
Display aspect ratio : 16:9
Frame rate mode : Constant
Frame rate : 25.000 FPS
Standard : NTSC
Color space : YUV
Chroma subsampling : 4:2:0
Bit depth : 8 bits
Scan type : Progressive
Bits/(Pixel*Frame) : 0.174
Stream size : 2.56 GiB (93%)
Writing library : x264 core 114
Encoding settings : cabac=1 / ref=3 / deblock=1:0:0 / analyse=0x3:0x113 / me=hex / subme=7 / psy=1 / psy_rd=1.00:0.00 / mixed_ref=1 / me_range=16 / chroma_me=1 / trellis=1 / 8x8dct=1 / cqm=2 / deadzone=21,11 / fast_pskip=1 / chroma_qp_offset=-4 / threads=6 / sliced_threads=0 / slices=1 / nr=0 / decimate=1 / interlaced=0 / constrained_intra=0 / bframes=3 / b_pyramid=0 / b_adapt=1 / b_bias=0 / direct=1 / weightb=1 / open_gop=0 / weightp=2 / keyint=250 / keyint_min=25 / scenecut=40 / intra_refresh=0 / rc_lookahead=40 / rc=2pass / mbtree=1 / bitrate=4000 / ratetol=1.0 / qcomp=0.60 / qpmin=5 / qpmax=69 / qpstep=4 / cplxblur=20.0 / qblur=0.5 / vbv_maxrate=8000 / vbv_bufsize=7995 / nal_hrd=vbr / ip_ratio=1.40 / aq=1:1.00
Default : Yes
Forced : No
Color range : Limited
Color primaries : BT.709
Transfer characteristics : BT.709
Matrix coefficients : BT.709
Audio
ID : 2
Format : AC-3
Format/Info : Audio Coding 3
Mode extension : CM (complete main)
Format settings, Endianness : Big
Codec ID : A_AC3
Duration : 1 h 33 min
Bit rate mode : Constant
Bit rate : 192 kb/s
Channel(s) : 2 channels
Channel positions : Front: L R
Sampling rate : 48.0 kHz
Frame rate : 31.250 FPS (1536 spf)
Compression mode : Lossy
Stream size : 129 MiB (5%)
Default : Yes
Forced : No
[Профиль] [ЛС]
Кто просматривает тему:

Форум Тема Автор Размер
National Geographic NG: Подъем Атлантиды / Открытая Атлантида / Atlantis rising (2017) HDTVRip | P1 ZeNArD 1.28 GB
Показать сообщения:    

Текущее время: Сегодня 10:00

Часовой пояс: GMT



Вы не можете начинать темы
Вы не можете отвечать на сообщения
Вы не можете редактировать свои сообщения
Вы не можете удалять свои сообщения
Вы не можете голосовать в опросах
Вы не можете прикреплять файлы к сообщениям
Вы не можете скачивать файлы