NG: Панорама 360° Объект всемирного наследия / Access 360° World Heritage [сезоны 1-7(10) 2-7(9)] (Kate Siney, Aditya Thayi...) [2012-2014 г., Документальный, научно-познавательный HDTVRip]

 
Автор Сообщение

skorpionN ®

Пол:

Стаж: 1 год 8 месяцев

Сообщений: 578



Награды: 4 (Подробнее)

Mega Seeder 2 (Количество: 1) Mega Seeder 1 (Количество: 1) Top Releaser 2 (Количество: 1)
Торрент-статистика

Создавать темы 31-Окт-2015 15:36

[Цитировать]

NG: Панорама 360° Объект всемирного наследия / Access 360° World Heritage [сезоны 1-7(10) 2- 7(9)]
Год выпуска: 2012-2014 г.г.
Страна: США, National Geographic Television
Жанр: Документальный, научно-познавательный
Продолжительность: 13 x ~ 00:45:00
Перевод: Профессиональный (одноголосый), озвучено на студии: АРК-ТВ, Велес
Текст читают: Игорь Тарадайкин, Александр Гаврилин, Денис Некрасов
Режиссер: Kate Siney, Aditya Thayi, Risa Beer, Erin Buxton, Clare Nolan, Rob Taylor, Matthew Tomaszewski
Описание: Что нужно для того, чтобы защитить самые известные места в мире? Как вы поддерживаете здания, которым тысячи лет? Как вы защищаете исторические структуры, которые содержат артефакты, стоящие миллионы долларов? В этой новой серии, мы берем Вас на эксклюзивный, все-доступа тур за кулисы избранных объектов Всемирного наследия ЮНЕСКО, чтобы осветить работу, которая идет на эксплуатацию и обслуживание этих заветных памятников, зданий, национальных парков и даже целых городов, гарантируя, что они выживут в наилучших условиях для будущих поколений. Объекты Всемирного наследия ЮНЕСКО – это завещание изобретательности человеческой цивилизации и красоты нашего природного мира. Места объектов распространены во всем мире и включают диапазон культурных и национальных чудес от древних пирамид до восточных дворцов и даже Тихого океана. Тем не менее, объекты Всемирного наследия разделяют одну общую черту – они любой ценой должны быть защищены и сохранены для будущего с особой тщательностью и заботой. Каждый час, выдвигая на первый план единственное место, сосредотачиваемся, прежде всего, на людях в этих исторических памятниках, поскольку они уравновешивают давление сохранности с потребностью сохранять места открытыми и доступными для всех. Мы даем зрителям закулисный проход в мир этих смотрителей. От охраны сокровищ Тадж-Махала к управлению загрязнением в Большом Барьерном рифе! Наши камеры изо дня в день захватывали операции, специальные проекты по сохранению и даже великие частные события. Через руководителей, реставраторов, гидов, садовников и преданных специалистов по животным, наши зрители получают исключительный взгляд в области, не открытые для общественности – секретные проходы, подземные туннели и сокровищницы - домой к тысячам лет истории и миллионно долларовой ценности экспонатов. Мы изучим истории позади каждого местоположения – от позолоченных и кровавых историй до естественных сил, которые делают эти места незаменимыми.
Список серий:

1 сезон:

01. Амазонка / The Amazon
02. Тадж-Махал / Taj Mahal

03. Киото / Kyoto (отсутствует)
04. Статуя Cвободы / Statue of Liberty
05. Килиманджаро / Kilimanjaro
06. Каппадокия / Cappadocia
07. Боробудур / Borobudur

08. Версальский дворец / Palace of Versailles (отсутствует)
09. Большой Барьерный риф / Great Barrier Reef
10. Best Of Access 360° World Heritage (отсутствует)

2 сезон:

01. Ангкор-Ват / Angkor Wat
02. Храм Святого семейства / Sagrada Familia
03. Гора Фудзияма / Mt. Fuji
04. Эверглейдс / Everglades
05. Санкт-Петербург / St. Petersburg
06. Венеция / Venice

07. Галапагосы / Galapagos (отсутствует)
08. Прага / Prague
09. Озеро Туркана / Lake Turkana (отсутствует)
Качество: HDTVRip
Формат: AVI
Видео кодек: XviD
Аудио кодек: AC3
Видео: 720x400 25.00fps 1800 Kbps
Аудио: AC3, 2ch, 192 kbps, 48 kHz

Дополнительные скриншоты:



MediaInfo:

Format : AVI
Format/Info : Audio Video Interleave
File size : 644 MiB
Duration : 44mn 58s
Overall bit rate : 2 001 Kbps
Writing application : VirtualDubMod 1.5.10.3 | www.virtualdub-fr.org || (build 2550/release)
Writing library : VirtualDubMod build 2550/release
Video
ID : 0
Format : MPEG-4 Visual
Format profile : Advanced Simple@L5
Format settings, BVOP : 2
Format settings, QPel : No
Format settings, GMC : No warppoints
Format settings, Matrix : Default (H.263)
Codec ID : XVID
Codec ID/Hint : XviD
Duration : 44mn 58s
Bit rate : 1 800 Kbps
Width : 720 pixels
Height : 400 pixels
Display aspect ratio : 16:9
Frame rate : 25.000 fps
Color space : YUV
Chroma subsampling : 4:2:0
Bit depth : 8 bits
Scan type : Progressive
Compression mode : Lossy
Bits/(Pixel*Frame) : 0.250
Stream size : 579 MiB (90%)
Writing library : XviD 1.2.1 (UTC 2008-12-04)
Audio
ID : 1
Format : AC-3
Format/Info : Audio Coding 3
Mode extension : CM (complete main)
Format settings, Endianness : Big
Codec ID : 2000
Duration : 44mn 58s
Bit rate mode : Constant
Bit rate : 192 Kbps
Channel(s) : 2 channels
Channel positions : Front: L R
Sampling rate : 48.0 KHz
Bit depth : 16 bits
Compression mode : Lossy
Stream size : 61.8 MiB (10%)
Alignment : Split accross interleaves
Interleave, duration : 40 ms (1.00 video frame)
Interleave, preload duration : 500 ms

Внимание:

Раздача ведётся путём добавления новых серий; при каждом добавлении создаётся новый торрент. Чтобы начать докачку новой серии, пользователям необходимо сделать следующее:
- Остановить скачивание.
- Удалить старый торрент у себя из клиента (старые серии удалять не надо).
- Скачать новый торрент и запустить его у себя в клиенте вместо старого, при этом указать клиенту путь в старую папку куда и должно происходить скачивание новых серий.
Добавлено
01. Ангкор-Ват / Angkor Wat


Последний раз редактировалось: skorpionN (2016-01-31 21:21), всего редактировалось 5 раз(а)
[Профиль] [ЛС]

KiruhaDelMar

Стаж: 1 год 8 месяцев

Сообщений: 243



Награды: Нет

Торрент-статистика

Создавать темы 01-Ноя-2015 09:53 (спустя 18 часов)

[Цитировать]

Видео: 720x40 че это для смарфонов
[Профиль] [ЛС]

skorpionN ®

Пол:

Стаж: 1 год 8 месяцев

Сообщений: 578



Награды: 4 (Подробнее)

Mega Seeder 1 (Количество: 1) Top Releaser 2 (Количество: 1) Mega Seeder 2 (Количество: 1)
Торрент-статистика

Создавать темы 01-Ноя-2015 13:33 (спустя 3 часа)

[Цитировать]

KiruhaDelMar, где это ты увидел 720х40? Всевидящий ты наш bk
[Профиль] [ЛС]
Кто просматривает тему:

Показать сообщения:    

Текущее время: Сегодня 20:08

Часовой пояс: GMT



Вы не можете начинать темы
Вы не можете отвечать на сообщения
Вы не можете редактировать свои сообщения
Вы не можете удалять свои сообщения
Вы не можете голосовать в опросах
Вы не можете прикреплять файлы к сообщениям
Вы не можете скачивать файлы