NG: Осушить Титаник / Drain the Titanic (Jobin Sampson) [2015 г., Документальный, научно-познавательный, HDTVRip 720p]

 
Автор Сообщение

skorpionN ®

Пол:

Стаж: 1 год 8 месяцев

Сообщений: 587



Награды: 4 (Подробнее)

Mega Seeder 3 (Количество: 1) Mega Seeder 2 (Количество: 1) Top Releaser 2 (Количество: 1)
Торрент-статистика

Создавать темы 15-Июн-2015 18:14

[Цитировать]

NG: Осушить Титаник / Drain the Titanic
Год выпуска: 2015
Страна: Канада, Mallison Sadler Productions Ltd and Northern Sky Entertainment Ltd
Жанр: Документальный, научно-познавательный
Продолжительность: 00:43:54
Перевод: Профессиональный (одноголосый)
Режиссер: Jobin Sampson
Описание: С помощью виртуальной визуализации мы "осушим" место крушения "Титаника", чтобы раскрыть тайны гибели корабля, считавшегося непотопляемым. Эхолокационные съемки позволят нам заглянуть в глубины легендарного Бермудского треугольника и узнать, что же скрыто на его дне.
NG: Осушить Бермудский треугольник / Drain the Bermuda Triangle (Jobim Sampson) [2014 г., Документальный, научно-познавательный, HDTVRip 720p]
NG: Осушить Великие озёра / Drain the Great Lakes (Криспин Садлер, Вэйн Абботт) [2011 г., Документальный, научно-познавательный, HDTVRip 720p]
NG: Осушить Титаник / Drain the Titanic (Jobin Sampson) [2015 г., Документальный, научно-познавательный, HDTVRip 720p]
Доп. информация: русская дорожка позаимствована из SatRip
Качество: HDTVRip 720p
Формат: MKV
Видео кодек: H.264
Аудио кодек: AC3
Видео: 1280x720 25.00fps 3200 Kbps
Аудио: AC3, 2ch, 192 kbps, 48 kHz

Скриншоты


MediaInfo:

Format : Matroska
Format version : Version 4 / Version 2
File size : 1.04 GiB
Duration : 43mn 54s
Overall bit rate mode : Variable
Overall bit rate : 3 380 Kbps
Encoded date : UTC 2015-06-15 17:56:50
Writing application : mkvmerge v7.9.0 ('Birds') 64bit
Writing library : libebml v1.3.1 + libmatroska v1.4.2
DURATION : 00:43:54.400000000
NUMBER_OF_FRAMES : 65860
NUMBER_OF_BYTES : 1049303058
_STATISTICS_WRITING_APP : mkvmerge v7.9.0 ('Birds') 64bit
_STATISTICS_WRITING_DATE_UTC : 2015-06-15 17:56:50
_STATISTICS_TAGS : BPS DURATION NUMBER_OF_FRAMES NUMBER_OF_BYTES
Video
ID : 2
Format : AVC
Format/Info : Advanced Video Codec
Format profile : High@L4.1
Format settings, CABAC : Yes
Format settings, ReFrames : 3 frames
Codec ID : V_MPEG4/ISO/AVC
Duration : 43mn 54s
Bit rate mode : Variable
Bit rate : 3 200 Kbps
Maximum bit rate : 8 000 Kbps
Width : 1 280 pixels
Height : 720 pixels
Display aspect ratio : 16:9
Frame rate mode : Constant
Frame rate : 25.000 fps
Standard : NTSC
Color space : YUV
Chroma subsampling : 4:2:0
Bit depth : 8 bits
Scan type : Progressive
Bits/(Pixel*Frame) : 0.139
Stream size : 980 MiB (92%)
Writing library : x264 core 114
Encoding settings : cabac=1 / ref=3 / deblock=1:0:0 / analyse=0x3:0x113 / me=hex / subme=7 / psy=1 / psy_rd=1.00:0.00 / mixed_ref=1 / me_range=16 / chroma_me=1 / trellis=1 / 8x8dct=1 / cqm=2 / deadzone=21,11 / fast_pskip=1 / chroma_qp_offset=-4 / threads=6 / sliced_threads=0 / slices=1 / nr=0 / decimate=1 / interlaced=0 / constrained_intra=0 / bframes=3 / b_pyramid=0 / b_adapt=1 / b_bias=0 / direct=1 / weightb=1 / open_gop=0 / weightp=2 / keyint=250 / keyint_min=25 / scenecut=40 / intra_refresh=0 / rc_lookahead=40 / rc=2pass / mbtree=1 / bitrate=3200 / ratetol=1.0 / qcomp=0.60 / qpmin=5 / qpmax=69 / qpstep=4 / cplxblur=20.0 / qblur=0.5 / vbv_maxrate=8000 / vbv_bufsize=7995 / nal_hrd=vbr / ip_ratio=1.40 / aq=1:1.00
Default : Yes
Forced : No
Color range : Limited
Color primaries : BT.709
Transfer characteristics : BT.709
Matrix coefficients : BT.709
Audio
ID : 1
Format : AC-3
Format/Info : Audio Coding 3
Mode extension : CM (complete main)
Format settings, Endianness : Big
Codec ID : A_AC3
Duration : 43mn 54s
Bit rate mode : Constant
Bit rate : 192 Kbps
Channel(s) : 2 channels
Channel positions : Front: L R
Sampling rate : 48.0 KHz
Compression mode : Lossy
Stream size : 60.3 MiB (6%)
Default : Yes
Forced : No
[Профиль] [ЛС]
Показать сообщения:    

Текущее время: Сегодня 16:22

Часовой пояс: GMT



Вы не можете начинать темы
Вы не можете отвечать на сообщения
Вы не можете редактировать свои сообщения
Вы не можете удалять свои сообщения
Вы не можете голосовать в опросах
Вы не можете прикреплять файлы к сообщениям
Вы не можете скачивать файлы