NG: Национальные парки Америки. Большой каньон / America's National Parks. Grand Canyon (2015) HDTVRip

 
Автор Сообщение

достали все ®

Пол:

Стаж: 1 год 8 месяцев

Сообщений: 6527



Награды: 12 (Подробнее)

Mega Seeder 5 (Количество: 1) Mega Releaser 2 (Количество: 1) Top Releaser 2 (Количество: 1)
Торрент-статистика

Создавать темы 29-Мар-2016 11:28

[Цитировать]

Информация о фильме
Название: Национальные парки Америки. Большой каньон
Оригинальное название: America's National Parks. Grand Canyon
Год выхода: 2015
Жанр: Документальный, природа, флора, фауна
Режиссер: Генри М. Микс, Ян Сохачевски
О фильме:Большой каньон - одно из самых известных мест США, созданных природой больше миллиона лет назад, но мало кто побывал за его северной стороной. Этот шрам на лице планеты с трудом поддаётся нашему пониманию. Человеческий глаз не в силах уловить все оттенки его красок. Геология этого места бросает вызов современной науке. Большой каньон - открытый учебник истории, а его слои, страницы истории, уносят нас в прошлое почти на 2 000 000 000 лет назад. И всё же, жизнь в этих местах бьёт ключом, хотя здешним обитателям приходится непросто. Поражения в битвах и триумфальные возвращения, в каньоне выживают лишь самые стойкие и твердолобые. В этих местах процветает воровство, ценятся быстрота и ловкость, а чтобы пройти здесь по воде требуются стальные нервы. Национальный парк Большой каньон - место, которое учит смирению.
Страна: США / Doclights / NDR NaturFilm
Продолжительность: 00:43:59
Перевод: дублированный
Файл
Кодек: XviD
Качество: HDTVRip
Видео: XviD, 1798 Кбит/с, 720x400
Звук: AC3, 2 ch, 192 Кбит/с

Скриншоты

Медиа-Инфо

Видео
Идентификатор : 0
Формат : MPEG-4 Visual
Профиль формата : Advanced Simple@L5
Параметр BVOP формата : 2
Параметр QPel формата : Нет
Параметр GMC формата : Без точки перехода
Параметр матрицы формата : Default (H.263)
Идентификатор кодека : XVID
Идентификатор кодека/Подсказка : XviD
Продолжительность : 43 м.
Битрейт : 1798 Кбит/сек
Ширина : 720 пикселей
Высота : 400 пикселей
Соотношение сторон : 16:9
Частота кадров : 25,000 кадров/сек
Цветовое пространство : YUV
Субдискретизация насыщенности : 4:2:0
Битовая глубина : 8 бит
Тип развёртки : Прогрессивная
Метод сжатия : С потерями
Бит/(Пиксели*Кадры) : 0.250
Размер потока : 566 Мбайт (90%)
Библиотека кодирования : XviD 1.2.1 (UTC 2008-12-04)
Аудио
Идентификатор : 1
Формат : AC-3
Формат/Информация : Audio Coding 3
Расширение режима : CM (complete main)
Параметр Endianness формата : Big
Идентификатор кодека : 2000
Продолжительность : 43 м.
Вид битрейта : Постоянный
Битрейт : 192 Кбит/сек
Каналы : 2 канала
Расположение каналов : Front: L R
Частота : 48,0 КГц
Битовая глубина : 16 бит
Метод сжатия : С потерями
Размер потока : 60,4 Мбайт (10%)
Выравнивание : Разделение по промежуткам
Продолжительность промежутка : 40 мс. (1,00 видеокадр)
Время предзагрузки промежутка : 500 мс.
Автор релиза: MusiCant
[Профиль] [ЛС]
Кто просматривает тему:

Показать сообщения:    

Текущее время: Сегодня 22:12

Часовой пояс: GMT



Вы не можете начинать темы
Вы не можете отвечать на сообщения
Вы не можете редактировать свои сообщения
Вы не можете удалять свои сообщения
Вы не можете голосовать в опросах
Вы не можете прикреплять файлы к сообщениям
Вы не можете скачивать файлы