NG: Миссия Сатурн / Mission Saturn (Shelley Ayres) [2017 г., Документальный, научно - познавательный, космос, HDTVRip-AVC720p]

 
Автор Сообщение

skorpionN ®

Пол:

Стаж: 3 года 3 месяца

Сообщений: 944



Награды: 4 (Подробнее)

Mega Seeder 1 (Количество: 1) Top Releaser 2 (Количество: 1) Mega Seeder 3 (Количество: 1)
Торрент-статистика

Создавать темы 21-Сен-2017 18:38

[Цитировать]

NG: Миссия Сатурн / Mission Saturn
Год выпуска: 2017
Страна: Канада, Exploration production Inc. in association with Discovery Channel and National Geographic
Жанр: Документальный, научно - познавательный, космос
Продолжительность: 00:46:57
Перевод: Профессиональный (одноголосый)
Режиссер: Shelley Ayres
Описание: На прекрасной планете Сатурн, более чем в миллиарде километров от Земли, космический аппарат стоимостью 3 млрд $, движется навстречу гибели. Это не авария, а жертва, призванная уберечь то, что позволила открыть эта миссия, включая спутник, на котором есть все необходимые для зарождения жизни компоненты. Мы не имеем права загрязнять мир, где может развиться жизнь на которую не влияло человечество. Это эффектное завершение уникальной программы позволившей столь близко изучить Сатурн. С его орбиты и внутри его колец. Впервые аппарат совершит посадку на планете в глубинах нашей Солнечной системы. Впервые осуществится мечта всех исследователей в самом экзотическом месте. Почти 20 лет космический аппарат «Кассини» (англ. Cassini orbiter) идеально выполнял свою задачу и добивался потрясающих научных результатов. Но теперь команда исследователей вынуждена его уничтожить. Закончился полет в один конец. Кассини прекратил свои исследования наиболее загадочной планеты в нашей солнечной системе. МИССИЯ САТУРН - завершена.
Качество: HDTVRip-AVC
Формат: MKV
Видео кодек: H.264
Аудио кодек: AC3
Видео: 1280x720 25.00 fps 5000 Kbps
Аудио: AC3 2ch, 48kHz, 192 kbps

Скриншоты


MediaInfo:

Format : Matroska
Format version : Version 4 / Version 2
File size : 1.70 GiB
Duration : 46 min 57 s
Overall bit rate mode : Variable
Overall bit rate : 5 194 kb/s
Encoded date : UTC 2017-09-21 17:21:26
Writing application : mkvmerge v6.9.1 ('Blue Panther') 64bit built on Apr 18 2014 18:23:38
Writing library : libebml v1.3.0 + libmatroska v1.4.1
Video
ID : 1
Format : AVC
Format/Info : Advanced Video Codec
Format profile : High@L4.1
Format settings, CABAC : Yes
Format settings, ReFrames : 3 frames
Codec ID : V_MPEG4/ISO/AVC
Duration : 46 min 57 s
Bit rate mode : Variable
Bit rate : 5 000 kb/s
Maximum bit rate : 54.0 Mb/s
Width : 1 280 pixels
Height : 720 pixels
Display aspect ratio : 16:9
Frame rate mode : Constant
Frame rate : 25.000 FPS
Standard : NTSC
Color space : YUV
Chroma subsampling : 4:2:0
Bit depth : 8 bits
Scan type : Progressive
Bits/(Pixel*Frame) : 0.217
Stream size : 1.61 GiB (94%)
Writing library : x264 core 114
Encoding settings : cabac=1 / ref=3 / deblock=1:0:0 / analyse=0x3:0x113 / me=hex / subme=7 / psy=1 / psy_rd=1.00:0.00 / mixed_ref=1 / me_range=16 / chroma_me=1 / trellis=1 / 8x8dct=1 / cqm=2 / deadzone=21,11 / fast_pskip=1 / chroma_qp_offset=-4 / threads=6 / sliced_threads=0 / slices=1 / nr=0 / decimate=1 / interlaced=0 / constrained_intra=0 / bframes=3 / b_pyramid=0 / b_adapt=1 / b_bias=0 / direct=1 / weightb=1 / open_gop=0 / weightp=2 / keyint=250 / keyint_min=25 / scenecut=40 / intra_refresh=0 / rc_lookahead=40 / rc=2pass / mbtree=1 / bitrate=5000 / ratetol=1.0 / qcomp=0.60 / qpmin=5 / qpmax=69 / qpstep=4 / cplxblur=20.0 / qblur=0.5 / vbv_maxrate=54000 / vbv_bufsize=53985 / nal_hrd=vbr / ip_ratio=1.40 / aq=1:1.00
Default : Yes
Forced : No
Color range : Limited
Color primaries : BT.709
Transfer characteristics : BT.709
Matrix coefficients : BT.709
Audio
ID : 2
Format : AC-3
Format/Info : Audio Coding 3
Mode extension : CM (complete main)
Format settings, Endianness : Big
Codec ID : A_AC3
Duration : 46 min 57 s
Bit rate mode : Constant
Bit rate : 192 kb/s
Channel(s) : 2 channels
Channel positions : Front: L R
Sampling rate : 48.0 kHz
Frame rate : 31.250 FPS (1536 spf)
Compression mode : Lossy
Stream size : 64.5 MiB (4%)
Default : Yes
Forced : No
[Профиль] [ЛС]
Кто просматривает тему:

Показать сообщения:    

Текущее время: Сегодня 15:18

Часовой пояс: GMT



Вы не можете начинать темы
Вы не можете отвечать на сообщения
Вы не можете редактировать свои сообщения
Вы не можете удалять свои сообщения
Вы не можете голосовать в опросах
Вы не можете прикреплять файлы к сообщениям
Вы не можете скачивать файлы