NG. Марс формирует новую Землю / Mars: Making the New Earth (Mark Davis / Марк Дэвис) [2009, Документальный, HDTVRip 720p]

 
Автор Сообщение

TorrentFilm ®

Пол:

Стаж: 2 года

Сообщений: 7741



Награды: Нет

Торрент-статистика

Создавать темы 14-Июн-2015 00:05

[Цитировать]

NG. Марс формирует новую Землю / Mars: Making the New Earth
Год выпуска: 2009
Страна: США
Студия: MDTV Production for National Geographic Cannel
Жанр: Документальный
Продолжительность: 00:49:58
Перевод: Профессиональный (однолосый закадровый)
Доп. инфо о переводе: по заказу телеагенства "Русский репортаж"
Режиссер: Mark Davis / Марк Дэвис
Описание: Возможность превращения Марса в обитаемый мир с деревьями, прекрасными цветами, чистыми реками и бирюзовым небом сегодня является предметом серьезного научного исследования и весьма вероятным будущим Красной планеты. Ученый из НАСА Крис МакКей 30 лет занимается изучением Марса и организмов, обитающих в экстремальных условиях на Земле. Писатель и продюсер Марк Дэвис вместе с легендарным аниматором Дэном Маасом присоединяются к МакКею, чтобы создать захватывающий рассказ о превращении мертвой планеты в цветущий мир.

Сэмпл: http://multi-up.com/1053494
Тип релиза: HDTVRip 720p
Контейнер: MKV
Видео: MPEG-4 AVC, 4400 Кбит/с, 25 фпс, 16:9, 1280x720
Аудио: Русский, AC3, 6 ch, 448 Кбит/с, 48.0 KHz

MediaInfo

Complete name : F:\Наладки\Марс\Марс формирует новую Землю_720p.mkvFormat : MatroskaFormat version : Version 4 / Version 2File size : 1.69 GiBDuration : 49mn 58sOverall bit rate : 4 849 KbpsEncoded date : UTC 2015-06-13 08:45:10Writing application : mkvmerge v6.6.0 ('The Edge Of The In Between') built on Dec 1 2013 17:55:00Writing library : libebml v1.3.0 + libmatroska v1.4.1
VideoID : 1Format : AVCFormat/Info : Advanced Video CodecFormat profile : High@L4.1Format settings, CABAC : YesFormat settings, ReFrames : 9 framesCodec ID : V_MPEG4/ISO/AVCDuration : 49mn 58sBit rate : 4 400 KbpsWidth : 1 280 pixelsHeight : 720 pixelsDisplay aspect ratio : 16:9Frame rate mode : ConstantFrame rate : 25.000 fpsColor space : YUVChroma subsampling : 4:2:0Bit depth : 8 bitsScan type : ProgressiveBits/(Pixel*Frame) : 0.191Stream size : 1.50 GiB (89%)Writing library : x264 core 146 r2538 121396cEncoding settings : cabac=1 / ref=9 / deblock=1:0:0 / analyse=0x3:0x133 / me=umh / subme=9 / psy=1 / psy_rd=1.00:0.10 / mixed_ref=1 / me_range=32 / chroma_me=1 / trellis=2 / 8x8dct=1 / cqm=0 / deadzone=21,11 / fast_pskip=1 / chroma_qp_offset=-3 / threads=6 / lookahead_threads=1 / sliced_threads=0 / nr=0 / decimate=0 / interlaced=0 / bluray_compat=0 / constrained_intra=0 / bframes=12 / b_pyramid=2 / b_adapt=2 / b_bias=0 / direct=3 / weightb=1 / open_gop=0 / weightp=2 / keyint=250 / keyint_min=23 / scenecut=40 / intra_refresh=0 / rc=2pass / mbtree=0 / bitrate=4400 / ratetol=1.0 / qcomp=0.60 / qpmin=0 / qpmax=69 / qpstep=4 / cplxblur=20.0 / qblur=0.5 / ip_ratio=1.40 / pb_ratio=1.30 / aq=1:1.00Language : EnglishDefault : YesForced : No
AudioID : 2Format : AC-3Format/Info : Audio Coding 3Mode extension : CM (complete main)Format settings, Endianness : BigCodec ID : A_AC3Duration : 49mn 58sBit rate mode : ConstantBit rate : 448 KbpsChannel(s) : 6 channelsChannel positions : Front: L C R, Side: L R, LFESampling rate : 48.0 KHzBit depth : 16 bitsCompression mode : LossyStream size : 160 MiB (9%)Language : RussianDefault : YesForced : No

Скриншоты


[Профиль] [ЛС]
Кто просматривает тему:

Показать сообщения:    

Текущее время: Сегодня 01:19

Часовой пояс: GMT



Вы не можете начинать темы
Вы не можете отвечать на сообщения
Вы не можете редактировать свои сообщения
Вы не можете удалять свои сообщения
Вы не можете голосовать в опросах
Вы не можете прикреплять файлы к сообщениям
Вы не можете скачивать файлы