NG: Ловец комет: Миссия "Розетта" (Розетта: посадка на комету) / Comet Catcher: The Rosetta Landing (Рой Гриффин) [2014 г., Документальный, научно - познавательный, космос, HDTVRip-AVC 720p]

 
Автор Сообщение

skorpionN ®

Пол:

Стаж: 2 года 7 месяцев

Сообщений: 832



Награды: 4 (Подробнее)

Mega Seeder 3 (Количество: 1) Mega Seeder 1 (Количество: 1) Top Releaser 2 (Количество: 1)
Торрент-статистика

Создавать темы 11-Окт-2017 20:59

[Цитировать]

NG: Ловец комет: Миссия "Розетта" (Розетта: посадка на комету) / Comet Catcher: The Rosetta Landing
Год выпуска: 2014
Страна: США, Darlow Smithson Productions. LTD FOR PBS & National Geographic Channels
Жанр: Документальный, научно - познавательный, космос
Продолжительность: 00:44:00
Перевод: Профессиональный (одноголосый), переведено и озвучено на студии "Велес"
Режиссер: Рой Гриффин
Описание: Космический аппарат Rosetta достиг цели своего 10-летнего полёта. Он максимально приблизился к комете 7P/Чурюмова-Герасименко. Завтра ожидается высадка спускаемого зонда Philae Европейского космического агентства. Впервые земной аппарат опустится на поверхность кометы. Сконструированный для этой миссии космический аппарат Rosetta достиг цели своего 10-летнего путешествия и максимально приблизился к комете 67P / Чурюмова-Герасименко. Он направит к поверхности этого космического объекта специальный модуль Philae. Это происходит на расстоянии 500 млн км от Земли.
Откройте для себя самую сложную и амбициозную из когда-либо предпринимавшихся миссию, нацеленную на то, чтобы понять истоки и эволюцию солнечной системы.
Качество: HDTVRip-AVC
Формат: MKV
Видео кодек: H.264
Аудио кодек: AC3
Видео: 1280x720 25.00fps 4000 Kbps
Аудио: AC3 2ch, 48kHz, 192 kbps

Скриншоты


MediaInfo:

Format : Matroska
Format version : Version 4 / Version 2
File size : 1.28 GiB
Duration : 43 min 59 s
Overall bit rate mode : Variable
Overall bit rate : 4 181 kb/s
Encoded date : UTC 2017-10-11 20:55:31
Writing application : mkvmerge v6.9.1 ('Blue Panther') 64bit built on Apr 18 2014 18:23:38
Writing library : libebml v1.3.0 + libmatroska v1.4.1
Video
ID : 1
Format : AVC
Format/Info : Advanced Video Codec
Format profile : High@L4.1
Format settings, CABAC : Yes
Format settings, ReFrames : 3 frames
Codec ID : V_MPEG4/ISO/AVC
Duration : 43 min 59 s
Bit rate mode : Variable
Bit rate : 4 000 kb/s
Maximum bit rate : 8 000 kb/s
Width : 1 280 pixels
Height : 720 pixels
Display aspect ratio : 16:9
Frame rate mode : Constant
Frame rate : 25.000 FPS
Standard : NTSC
Color space : YUV
Chroma subsampling : 4:2:0
Bit depth : 8 bits
Scan type : Progressive
Bits/(Pixel*Frame) : 0.174
Stream size : 1.20 GiB (93%)
Writing library : x264 core 114
Encoding settings : cabac=1 / ref=3 / deblock=1:0:0 / analyse=0x3:0x113 / me=hex / subme=7 / psy=1 / psy_rd=1.00:0.00 / mixed_ref=1 / me_range=16 / chroma_me=1 / trellis=1 / 8x8dct=1 / cqm=2 / deadzone=21,11 / fast_pskip=1 / chroma_qp_offset=-4 / threads=6 / sliced_threads=0 / slices=1 / nr=0 / decimate=1 / interlaced=0 / constrained_intra=0 / bframes=3 / b_pyramid=0 / b_adapt=1 / b_bias=0 / direct=1 / weightb=1 / open_gop=0 / weightp=2 / keyint=250 / keyint_min=25 / scenecut=40 / intra_refresh=0 / rc_lookahead=40 / rc=2pass / mbtree=1 / bitrate=4000 / ratetol=1.0 / qcomp=0.60 / qpmin=5 / qpmax=69 / qpstep=4 / cplxblur=20.0 / qblur=0.5 / vbv_maxrate=8000 / vbv_bufsize=7995 / nal_hrd=vbr / ip_ratio=1.40 / aq=1:1.00
Default : Yes
Forced : No
Color range : Limited
Color primaries : BT.709
Transfer characteristics : BT.709
Matrix coefficients : BT.709
Audio
ID : 2
Format : AC-3
Format/Info : Audio Coding 3
Mode extension : CM (complete main)
Format settings, Endianness : Big
Codec ID : A_AC3
Duration : 43 min 59 s
Bit rate mode : Constant
Bit rate : 192 kb/s
Channel(s) : 2 channels
Channel positions : Front: L R
Sampling rate : 48.0 kHz
Frame rate : 31.250 FPS (1536 spf)
Compression mode : Lossy
Stream size : 60.4 MiB (5%)
Default : Yes
Forced : No
[Профиль] [ЛС]

KiruhaDelMar

Стаж: 2 года 7 месяцев

Сообщений: 269



Награды: Нет

Торрент-статистика

Создавать темы 11-Окт-2017 21:43 (спустя 44 минуты)

[Цитировать]

ты прежде чем что то делать проверяй хотя бы на ютюбе, в часности актуальность и просмотры
[Профиль] [ЛС]

skorpionN ®

Пол:

Стаж: 2 года 7 месяцев

Сообщений: 832



Награды: 4 (Подробнее)

Mega Seeder 3 (Количество: 1) Top Releaser 2 (Количество: 1) Mega Seeder 1 (Количество: 1)
Торрент-статистика

Создавать темы 12-Окт-2017 14:29 (спустя 16 часов)

[Цитировать]

Так мы же не на ютубе bk
[Профиль] [ЛС]
Кто просматривает тему:

Показать сообщения:    

Текущее время: Сегодня 14:30

Часовой пояс: GMT



Вы не можете начинать темы
Вы не можете отвечать на сообщения
Вы не можете редактировать свои сообщения
Вы не можете удалять свои сообщения
Вы не можете голосовать в опросах
Вы не можете прикреплять файлы к сообщениям
Вы не можете скачивать файлы