NG: Исследователь 2.0: Проклятие затерянного города: Легенда о "Городе обезьяньего бога" / Explorer. Legend of the monkey God [сезон 8 эпизод 02] (Graham Townsley) [2015 г., Документальный, история, исследования, HDTVRip-AVC 720p]

 
Автор Сообщение

skorpionN ®

Пол:

Стаж: 1 год 8 месяцев

Сообщений: 591



Награды: 4 (Подробнее)

Top Releaser 2 (Количество: 1) Mega Seeder 3 (Количество: 1) Mega Seeder 1 (Количество: 1)
Торрент-статистика

Создавать темы 09-Авг-2016 15:27

[Цитировать]

NG: Исследователь 2.0: Проклятие затерянного города: Легенда о "Городе обезьяньего бога" / Explorer. Legend of the monkey God [сезон 08 эпизод 02]
Год выпуска: 2015
Страна: США, National Geographic Studios
Жанр: Документальный, история, археология, исследования
Продолжительность: 00:43:59
Перевод: Профессиональный (одноголосый), переведено и озвучено на студии Велес, текст читал Борис Хасанов
Режиссер: Graham Townsley
Описание: Каждый выпуск документального телешоу — это попытка узнать больше об окружающем мире и разгадать тайны природы, науки или истории. Темами телепередачи становятся скрытые возможности организма человека и животных, особенности выживания в дикой природе, глобальное потепление, изучение древних городов и многое другое. Телешоу «Исследователь 2.0» является продолжением научно-популярной передачи «Исследователь», которая выходила почти три десятка лет и получила множество престижных телевизионных наград.
В этом выпуске: Искатель приключений Стив Элкинс разыскивает затерянный Белый город, также известный как "Город обезьяньего бога", в джунглях Гондураса.
Качество: HDTVRip-AVC 720p
Формат: MKV
Видео кодек: H.264
Аудио кодек: AC3
Видео: 1280x720 25.00 fps 4500 kbps
Аудио: AC3, 2ch, 192 kbps, 48 kHz

Скриншоты


Доп. информация:

Легенды о потерянном городе
Ла-Сьюдад-Бланка — таинственный город, расположенный, согласно легендам, в девственных тропических лесах Ла-Москитии в восточном Гондурасе. Испанский конкистадор Эрнан Кортес сообщил, что получил «достоверную информацию» о древних руинах, но не нашёл их. В 1927 году пилот Чарльз Линдберг сообщил, что, пролетая над восточными территориями Гондураса, видел памятники, построенные из белого камня.
В 1930 году появились слухи о городе Бога обезьян в Гондурасе, который был приравнен к Сьюдад-Бланка, а в 1939 году Теодор Moрде утверждал, что нашёл его, и привёз тысячи артефактов в Соединённые Штаты, чтобы доказать это. По словам Морде, коренные жители сказали ему, что там зарыта гигантская статуя Бога обезьян. Он никому не показывал точное местоположение затерянного города, потому что боялся, что его разграбят. Морде намеревался вернуться туда для проведения раскопок, но умер, не достигнув своей цели.
В 1952 году исследователь Тибор Секельдж отправился на поиски Белого города, экспедицию финансировало Министерство культуры Гондураса, но он вернулся с пустыми руками. Исследования продолжались, и в 2012 году было сделано первое значительное открытие.
В мае 2012 года группа исследователей во главе с кинодокументалистом Стивом Элкинсом провела аэрофотосъёмку в Ла-Москитии, используя дистанционное зондирование (лидар). Сканирование показало наличие искусственных характеристик, все СМИ сообщили о возможном открытии затерянного города Бога обезьян. В мае 2013 года дополнительный лазерный анализ показал наличие больших архитектурных конструкций под пологом леса. Настало время для наземной разведки, чтобы подтвердить результаты.
Команда археологов под руководством Кристофера Фишера, эксперта по Мезоамерике из Университета штата Колорадо, только что завершила наземное обследование и сообщила захватывающую новость. Они нашли обширный комплекс земляных пирамид, оросительных каналов, водохранилищ, курганы, каменные изваяния, сохранившиеся нетронутыми, так как город был покинут несколько веков или даже тысячелетий назад.
«В отличие от соседних майя, эта культура остаётся практически неизвестной, — пишет National Geographic. — Археологи даже не дали ей имя».
Пока команда нашла 52 артефакта, которые выступали из земли, в том числе каменные церемониальные сооружения, сосуды, украшенные зооморфными фигурами. Археологи считают, что тысячи артефактов, возможно, погребены под поверхностью.

MediaInfo:

Format : Matroska
Format version : Version 4 / Version 2
File size : 1.44 GiB
Duration : 43mn 59s
Overall bit rate mode : Variable
Overall bit rate : 4 695 Kbps
Encoded date : UTC 2016-08-09 12:29:00
Writing application : TMPGEnc Video Mastering Works 6 Trial with Movie Plug-in Version. 6.1.5.26
Writing library : TMPGEnc Video Mastering Works 6 Trial with Movie Plug-in Version. 6.1.5.26
Video
ID : 2
Format : AVC
Format/Info : Advanced Video Codec
Format profile : High@L4.1
Format settings, CABAC : Yes
Format settings, ReFrames : 9 frames
Codec ID : V_MPEG4/ISO/AVC
Duration : 43mn 59s
Bit rate mode : Variable
Bit rate : 4 500 Kbps
Maximum bit rate : 18.4 Mbps
Width : 1 280 pixels
Height : 720 pixels
Display aspect ratio : 16:9
Frame rate mode : Constant
Frame rate : 25.000 fps
Standard : Component
Color space : YUV
Chroma subsampling : 4:2:0
Bit depth : 8 bits
Scan type : Progressive
Bits/(Pixel*Frame) : 0.195
Stream size : 1.35 GiB (94%)
Writing library : x264 core 144
Encoding settings : cabac=1 / ref=9 / deblock=1:0:0 / analyse=0x3:0x113 / me=hex / subme=7 / psy=1 / psy_rd=1.00:0.00 / mixed_ref=1 / me_range=16 / chroma_me=1 / trellis=1 / 8x8dct=1 / cqm=1 / deadzone=21,11 / fast_pskip=1 / chroma_qp_offset=-2 / threads=6 / lookahead_threads=1 / sliced_threads=0 / slices=1 / nr=0 / decimate=1 / interlaced=0 / minigop=0 / stitchable=1 / constrained_intra=0 / bframes=3 / b_pyramid=0 / b_adapt=1 / b_bias=0 / direct=1 / weightb=1 / open_gop=1 / weightp=2 / keyint=250 / keyint_min=25 / scenecut=40 / intra_refresh=0 / rc_lookahead=40 / rc=2pass / mbtree=1 / bitrate=4500 / ratetol=1.0 / qcomp=0.60 / qpmin=3 / qpmax=69 / qpstep=4 / cplxblur=20.0 / qblur=0.5 / vbv_maxrate=18400 / vbv_bufsize=18400 / nal_hrd=vbr / filler=0 / ip_ratio=1.40 / aq=1:1.00
Default : Yes
Forced : No
Color range : Limited
Color primaries : BT.709
Transfer characteristics : BT.709
Matrix coefficients : BT.709
Audio
ID : 1
Format : AC-3
Format/Info : Audio Coding 3
Mode extension : CM (complete main)
Format settings, Endianness : Big
Codec ID : A_AC3
Duration : 43mn 59s
Bit rate mode : Constant
Bit rate : 192 Kbps
Channel(s) : 2 channels
Channel positions : Front: L R
Sampling rate : 48.0 KHz
Frame rate : 31.250 fps (1536 spf)
Compression mode : Lossy
Stream size : 60.4 MiB (4%)
Default : Yes
Forced : No
NG: Исследователь 2.0: Войны за слоновую кость / Explorer. Warlords of Ivory [сезон 8 эпизод 01]
NG: Исследователь 2.0: Проклятие затерянного города: Легенда о "Городе обезьяньего бога" / Explorer. Legend of the monkey God [сезон 8 эпизод 02]
NG: Исследователь 2.0: Глобальное потепление с Биллом Найем / Explorer. Bill Nye's Global Meltdown [сезон 8 эпизод 03]
NG: Исследователь 2.0: Культ Марии / Explorer: The Cult of Mary [сезон 8 эпизод 04]
NG: Исследователь 2.0: Зов дикой природы / Explorer. Call of the Wild [сезон 8 эпизод 05]
NG: Исследователь 2.0: Раскройте пошире глаза / Explorer. Eyes Wide Open [сезон 8 эпизод 06]
NG: Исследователь 2.0: Лики смерти / Explorer. Faces of Death [сезон 8 эпизод 08]
NG: Исследователь 2.0: Бирма (Точка невозврата) / Explorer. Point of No Return [сезон 8 эпизод 09]
NG: Исследователь 2.0: Кровавые древности /Explorer. Blood Antiquities [сезон 8 эпизод 10]
[/align
[Профиль] [ЛС]
Кто просматривает тему:

Форум Тема Автор Размер
National Geographic NG: Исследователь 2.0: Бирма (Точка невозврата) [сезон 8 эпизод 09] / Explorer. Point of No Return (Todd Hermann) [2016 г., Документальный, научно-попупулярный, HDTVRip 720p] skorpionN 1.44 GB
National Geographic NG: Исследователь 2.0: Войны за слоновую кость / Explorer. Warlords of Ivory [сезон 08 эпизод 01] (J.J. Kelley) [2015 г., Документальный, расследования, HDTVRip 720p] skorpionN 1.41 GB
National Geographic NG: Исследователь 2.0: Глобальное потепление с Биллом Найем / Explorer. Bill Nye's Global Meltdown [сезон 8 эпизод 03] (Christopher Cassel) [2015 г., Документальный, научно-познавательный,... skorpionN 1.36 GB
National Geographic NG: Исследователь 2.0: Зов дикой природы / Explorer. Call of the Wild [сезон 8 эпизод 05] (Brooke Runnette / Брук Руннетте) [2016 г., Документальный, научно-познавательный, HDTVRip 720p] skorpionN 1.5 GB
National Geographic NG: Исследователь 2.0: Кровавые древности / Explorer. Blood Antiquities [сезон 08 эпизод 10] (Tony Gerber) [2016 г., Документальный, HDTVRip 720p] skorpionN 1.43 GB
National Geographic NG: Исследователь 2.0: Культ Марии / Explorer: The Cult of Mary [сезон 8 эпизод 04](Brooke Runnette) [2015 г., Документальный, религия, секты, HDTVRip 720p] skorpionN 1.59 GB
National Geographic NG: Исследователь 2.0: Лики смерти / Explorer. Faces of Death [сезон 8 эпизод 08] (Mark Mannucci) [2016 г., Документальный, научно-познавательный, HDTVRip 720p] skorpionN 1.44 GB
National Geographic NG: Исследователь 2.0: Раскройте пошире глаза / Explorer. Eyes Wide Open [сезон 8 эпизод 06] (Brooke Runnette) [2016 г., Документальный, научно-познавательный, HDTVRip 720p] skorpionN 1.46 GB
Показать сообщения:    

Текущее время: Сегодня 10:09

Часовой пояс: GMT



Вы не можете начинать темы
Вы не можете отвечать на сообщения
Вы не можете редактировать свои сообщения
Вы не можете удалять свои сообщения
Вы не можете голосовать в опросах
Вы не можете прикреплять файлы к сообщениям
Вы не можете скачивать файлы