NG: Исследователь 2.0: Глобальное потепление с Биллом Найем / Explorer. Bill Nye's Global Meltdown [сезон 8 эпизод 03] (Christopher Cassel) [2015 г., Документальный, научно-познавательный, HDTVRip 720p]

 
Автор Сообщение

skorpionN ®

Пол:

Стаж: 1 год 8 месяцев

Сообщений: 582



Награды: 4 (Подробнее)

Mega Seeder 3 (Количество: 1) Top Releaser 2 (Количество: 1) Mega Seeder 1 (Количество: 1)
Торрент-статистика

Создавать темы 02-Мар-2016 12:59

[Цитировать]

NG: Исследователь 2.0: Глобальное потепление с Биллом Найем / Explorer. Bill Nye's Global Meltdown [сезон 8 эпизод 03]
Год выпуска: 2015
Страна: США, National Geographic Studios
Жанр: Документальный, научно-познавательный
Продолжительность: 00:43:31
Перевод: Профессиональный (одноголосый), озвучено на студии Велес, текст читал Борис Хасанов
Режиссер: Christopher Cassel
В ролях: Ведущий - Билл Най
Описание: Каждый выпуск документального телешоу — это попытка узнать больше об окружающем мире и разгадать тайны природы, науки или истории. Темами телепередачи становятся скрытые возможности организма человека и животных, особенности выживания в дикой природе, глобальное потепление, изучение древних городов и многое другое. Телешоу «Исследователь 2.0» является продолжением научно-популярной передачи «Исследователь», которая выходила почти три десятка лет и получила множество престижных телевизионных наград.
В этом выпуске: Билл Най расскажет о негативных изменениях, происходящих с климатом нашей планеты и подскажет, что нужно делать, чтобы это изменить.
Качество: HDTVRip 720p
Формат: MKV
Видео кодек: H.264
Аудио кодек: AC3
Видео: 1280x720 29.976fps 4500 Kbps
Аудио: AC3 2ch, 48kHz, 192 kbps

Скриншоты


MediaInfo:

Format : Matroska
Format version : Version 2
File size : 1.36 GiB
Duration : 43mn 31s
Overall bit rate mode : Constant
Overall bit rate : 4 474 Kbps
Encoded date : UTC 2016-03-01 17:05:50
Writing application : TMPGEnc Video Mastering Works 5 Version. 5.0.6.38
Writing library : TMPGEnc Video Mastering Works 5 Version. 5.0.6.38
Video
ID : 2
Format : AVC
Format/Info : Advanced Video Codec
Format profile : High@L4.1
Format settings, CABAC : Yes
Format settings, ReFrames : 3 frames
Codec ID : V_MPEG4/ISO/AVC
Duration : 43mn 31s
Bit rate mode : Constant
Bit rate : 4 193 Kbps
Nominal bit rate : 4 500 Kbps / 4 500 Kbps
Width : 1 280 pixels
Height : 720 pixels
Display aspect ratio : 16:9
Frame rate mode : Constant
Frame rate : 30.000 fps
Original frame rate : 29.970 fps
Standard : NTSC
Color space : YUV
Chroma subsampling : 4:2:0
Bit depth : 8 bits
Scan type : Progressive
Bits/(Pixel*Frame) : 0.152
Stream size : 1.27 GiB (94%)
Writing library : x264 core 114
Encoding settings : cabac=1 / ref=3 / deblock=1:0:0 / analyse=0x3:0x113 / me=hex / subme=7 / psy=1 / psy_rd=1.00:0.00 / mixed_ref=1 / me_range=16 / chroma_me=1 / trellis=1 / 8x8dct=1 / cqm=2 / deadzone=21,11 / fast_pskip=1 / chroma_qp_offset=-2 / threads=6 / sliced_threads=0 / slices=1 / nr=0 / decimate=1 / interlaced=0 / constrained_intra=0 / bframes=3 / b_pyramid=0 / b_adapt=1 / b_bias=0 / direct=1 / weightb=1 / open_gop=0 / weightp=2 / keyint=250 / keyint_min=25 / scenecut=40 / intra_refresh=0 / rc_lookahead=40 / rc=cbr / mbtree=1 / bitrate=4500 / ratetol=1.0 / qcomp=0.60 / qpmin=3 / qpmax=69 / qpstep=4 / vbv_maxrate=4500 / vbv_bufsize=4489 / nal_hrd=cbr / ip_ratio=1.40 / aq=1:1.00
Default : Yes
Forced : No
Color primaries : BT.709
Transfer characteristics : BT.709
Matrix coefficients : BT.709
Color range : Limited
Audio
ID : 1
Format : AC-3
Format/Info : Audio Coding 3
Mode extension : CM (complete main)
Format settings, Endianness : Big
Codec ID : A_AC3
Duration : 43mn 31s
Bit rate mode : Constant
Bit rate : 192 Kbps
Channel(s) : 2 channels
Channel positions : Front: L R
Sampling rate : 48.0 KHz
Bit depth : 16 bits
Compression mode : Lossy
Stream size : 59.8 MiB (4%)
Default : Yes
Forced : No
NG: Исследователь 2.0: Войны за слоновую кость / Explorer. Warlords of Ivory [сезон 8 эпизод 01]
NG: Исследователь 2.0: Проклятие затерянного города: Легенда о "Городе обезьяньего бога" / Explorer. Legend of the monkey God [сезон 8 эпизод 02]
NG: Исследователь 2.0: Глобальное потепление с Биллом Найем / Explorer. Bill Nye's Global Meltdown [сезон 8 эпизод 03]
NG: Исследователь 2.0: Культ Марии / Explorer: The Cult of Mary [сезон 8 эпизод 04]
NG: Исследователь 2.0: Зов дикой природы / Explorer. Call of the Wild [сезон 8 эпизод 05]
NG: Исследователь 2.0: Раскройте пошире глаза / Explorer. Eyes Wide Open [сезон 8 эпизод 06]
NG: Исследователь 2.0: Лики смерти / Explorer. Faces of Death [сезон 8 эпизод 08]
NG: Исследователь 2.0: Бирма (Точка невозврата) / Explorer. Point of No Return [сезон 8 эпизод 09]
NG: Исследователь 2.0: Кровавые древности /Explorer. Blood Antiquities [сезон 8 эпизод 10]
[/align
[Профиль] [ЛС]
Кто просматривает тему:

Форум Тема Автор Размер
National Geographic NG: Исследователь 2.0: Бирма (Точка невозврата) [сезон 8 эпизод 09] / Explorer. Point of No Return (Todd Hermann) [2016 г., Документальный, научно-попупулярный, HDTVRip 720p] skorpionN 1.44 GB
National Geographic NG: Исследователь 2.0: Войны за слоновую кость / Explorer. Warlords of Ivory [сезон 08 эпизод 01] (J.J. Kelley) [2015 г., Документальный, расследования, HDTVRip 720p] skorpionN 1.41 GB
National Geographic NG: Исследователь 2.0: Зов дикой природы / Explorer. Call of the Wild [сезон 8 эпизод 05] (Brooke Runnette / Брук Руннетте) [2016 г., Документальный, научно-познавательный, HDTVRip 720p] skorpionN 1.5 GB
National Geographic NG: Исследователь 2.0: Кровавые древности / Explorer. Blood Antiquities [сезон 08 эпизод 10] (Tony Gerber) [2016 г., Документальный, HDTVRip 720p] skorpionN 1.43 GB
National Geographic NG: Исследователь 2.0: Культ Марии / Explorer: The Cult of Mary [сезон 8 эпизод 04](Brooke Runnette) [2015 г., Документальный, религия, секты, HDTVRip 720p] skorpionN 1.59 GB
National Geographic NG: Исследователь 2.0: Лики смерти / Explorer. Faces of Death [сезон 8 эпизод 08] (Mark Mannucci) [2016 г., Документальный, научно-познавательный, HDTVRip 720p] skorpionN 1.44 GB
National Geographic NG: Исследователь 2.0: Проклятие затерянного города: Легенда о "Городе обезьяньего бога" / Explorer. Legend of the monkey God [сезон 8 эпизод 02] (Graham Townsley) [2015 г., Документальный,... skorpionN 1.44 GB
National Geographic NG: Исследователь 2.0: Раскройте пошире глаза / Explorer. Eyes Wide Open [сезон 8 эпизод 06] (Brooke Runnette) [2016 г., Документальный, научно-познавательный, HDTVRip 720p] skorpionN 1.46 GB
Показать сообщения:    

Текущее время: Сегодня 02:11

Часовой пояс: GMT



Вы не можете начинать темы
Вы не можете отвечать на сообщения
Вы не можете редактировать свои сообщения
Вы не можете удалять свои сообщения
Вы не можете голосовать в опросах
Вы не можете прикреплять файлы к сообщениям
Вы не можете скачивать файлы