NG: Исследователь 2.0: Войны за слоновую кость / Explorer. Warlords of Ivory [сезон 08 эпизод 01] (J.J. Kelley) [2015 г., Документальный, расследования, HDTVRip 720p]

 
Автор Сообщение

skorpionN ®

Пол:

Стаж: 1 год 8 месяцев

Сообщений: 578



Награды: 4 (Подробнее)

Mega Seeder 1 (Количество: 1) Mega Seeder 2 (Количество: 1) Mega Seeder 3 (Количество: 1)
Торрент-статистика

Создавать темы 04-Июл-2016 15:06

[Цитировать]

NG: Исследователь 2.0: Войны за слоновую кость / Explorer. Warlords of Ivory [сезон 08 эпизод 01]
Год выпуска: 2015
Страна: США, National Geographic Studios
Жанр: Документальный, расследования
Продолжительность: 00:43:08
Перевод: Профессиональный (одноголосый), переведено и озвучено на студии Велес, текст читал Борис Хасанов
Режиссер: J.J. Kelley
В ролях: Журналист Брайан Кристи
Доп. информация: Видеоряд адаптирован для русской аудиодорожки
Описание: Каждый выпуск документального телешоу — это попытка узнать больше об окружающем мире и разгадать тайны природы, науки или истории. Темами телепередачи становятся скрытые возможности организма человека и животных, особенности выживания в дикой природе, глобальное потепление, изучение древних городов и многое другое. Телешоу «Исследователь 2.0» является продолжением научно-популярной передачи «Исследователь», которая выходила почти три десятка лет и получила множество престижных телевизионных наград.
В этом выпуске: Ужасающий путь, выстланный деньгами и кровью. Революционная спецоперация. И попытка спасти от вымирания одно из самых великолепных животных на планете. Журналист Брайан Кристи расследует связь между браконьерами, охотящимися за слоновой костью, и финансированием террористических организаций.
Качество: HDTVRip 720p
Формат: MKV
Видео кодек: H.264
Аудио кодек: AC3
Видео: 1280x720 29.970 fps 4500 Kbps
Аудио: AC3 2ch, 48kHz, 192 kbps

Скриншоты


MediaInfo:

Format : Matroska
Format version : Version 4 / Version 2
File size : 1.41 GiB
Duration : 43mn 7s
Overall bit rate mode : Variable
Overall bit rate : 4 675 Kbps
Encoded date : UTC 2016-07-04 14:53:29
Writing application : mkvmerge v6.9.1 ('Blue Panther') 64bit built on Apr 18 2014 18:23:38
Writing library : libebml v1.3.0 + libmatroska v1.4.1
Video
ID : 1
Format : AVC
Format/Info : Advanced Video Codec
Format profile : High@L4.1
Format settings, CABAC : Yes
Format settings, ReFrames : 3 frames
Codec ID : V_MPEG4/ISO/AVC
Duration : 43mn 7s
Bit rate mode : Variable
Bit rate : 4 500 Kbps
Maximum bit rate : 8 000 Kbps
Width : 1 280 pixels
Height : 720 pixels
Display aspect ratio : 16:9
Frame rate mode : Constant
Frame rate : 29.970 (30000/1001) fps
Standard : NTSC
Color space : YUV
Chroma subsampling : 4:2:0
Bit depth : 8 bits
Scan type : Progressive
Bits/(Pixel*Frame) : 0.163
Stream size : 1.32 GiB (94%)
Writing library : x264 core 114
Encoding settings : cabac=1 / ref=3 / deblock=1:0:0 / analyse=0x3:0x113 / me=hex / subme=7 / psy=1 / psy_rd=1.00:0.00 / mixed_ref=1 / me_range=16 / chroma_me=1 / trellis=1 / 8x8dct=1 / cqm=2 / deadzone=21,11 / fast_pskip=1 / chroma_qp_offset=-4 / threads=6 / sliced_threads=0 / slices=1 / nr=0 / decimate=1 / interlaced=0 / constrained_intra=0 / bframes=3 / b_pyramid=0 / b_adapt=1 / b_bias=0 / direct=1 / weightb=1 / open_gop=0 / weightp=2 / keyint=250 / keyint_min=25 / scenecut=40 / intra_refresh=0 / rc_lookahead=40 / rc=2pass / mbtree=1 / bitrate=4500 / ratetol=1.0 / qcomp=0.60 / qpmin=5 / qpmax=69 / qpstep=4 / cplxblur=20.0 / qblur=0.5 / vbv_maxrate=8000 / vbv_bufsize=7995 / nal_hrd=vbr / ip_ratio=1.40 / aq=1:1.00
Default : Yes
Forced : No
Color range : Limited
Color primaries : BT.709
Transfer characteristics : BT.709
Matrix coefficients : BT.709
Audio
ID : 2
Format : AC-3
Format/Info : Audio Coding 3
Mode extension : CM (complete main)
Format settings, Endianness : Big
Codec ID : A_AC3
Duration : 43mn 7s
Bit rate mode : Constant
Bit rate : 192 Kbps
Channel(s) : 2 channels
Channel positions : Front: L R
Sampling rate : 48.0 KHz
Frame rate : 31.250 fps (1536 spf)
Compression mode : Lossy
Stream size : 59.2 MiB (4%)
Default : Yes
Forced : No
NG: Исследователь 2.0: Войны за слоновую кость / Explorer. Warlords of Ivory [сезон 8 эпизод 01]
NG: Исследователь 2.0: Проклятие затерянного города: Легенда о "Городе обезьяньего бога" / Explorer. Legend of the monkey God [сезон 8 эпизод 02]
NG: Исследователь 2.0: Глобальное потепление с Биллом Найем / Explorer. Bill Nye's Global Meltdown [сезон 8 эпизод 03]
NG: Исследователь 2.0: Культ Марии / Explorer: The Cult of Mary [сезон 8 эпизод 04]
NG: Исследователь 2.0: Зов дикой природы / Explorer. Call of the Wild [сезон 8 эпизод 05]
NG: Исследователь 2.0: Раскройте пошире глаза / Explorer. Eyes Wide Open [сезон 8 эпизод 06]
NG: Исследователь 2.0: Лики смерти / Explorer. Faces of Death [сезон 8 эпизод 08]
NG: Исследователь 2.0: Бирма (Точка невозврата) / Explorer. Point of No Return [сезон 8 эпизод 09]
NG: Исследователь 2.0: Кровавые древности /Explorer. Blood Antiquities [сезон 8 эпизод 10]
[/align
[Профиль] [ЛС]
Кто просматривает тему:

Форум Тема Автор Размер
National Geographic NG: Исследователь 2.0: Бирма (Точка невозврата) [сезон 8 эпизод 09] / Explorer. Point of No Return (Todd Hermann) [2016 г., Документальный, научно-попупулярный, HDTVRip 720p] skorpionN 1.44 GB
National Geographic NG: Исследователь 2.0: Глобальное потепление с Биллом Найем / Explorer. Bill Nye's Global Meltdown [сезон 8 эпизод 03] (Christopher Cassel) [2015 г., Документальный, научно-познавательный,... skorpionN 1.36 GB
National Geographic NG: Исследователь 2.0: Зов дикой природы / Explorer. Call of the Wild [сезон 8 эпизод 05] (Brooke Runnette / Брук Руннетте) [2016 г., Документальный, научно-познавательный, HDTVRip 720p] skorpionN 1.5 GB
National Geographic NG: Исследователь 2.0: Кровавые древности / Explorer. Blood Antiquities [сезон 08 эпизод 10] (Tony Gerber) [2016 г., Документальный, HDTVRip 720p] skorpionN 1.43 GB
National Geographic NG: Исследователь 2.0: Культ Марии / Explorer: The Cult of Mary [сезон 8 эпизод 04](Brooke Runnette) [2015 г., Документальный, религия, секты, HDTVRip 720p] skorpionN 1.59 GB
National Geographic NG: Исследователь 2.0: Лики смерти / Explorer. Faces of Death [сезон 8 эпизод 08] (Mark Mannucci) [2016 г., Документальный, научно-познавательный, HDTVRip 720p] skorpionN 1.44 GB
National Geographic NG: Исследователь 2.0: Проклятие затерянного города: Легенда о "Городе обезьяньего бога" / Explorer. Legend of the monkey God [сезон 8 эпизод 02] (Graham Townsley) [2015 г., Документальный,... skorpionN 1.44 GB
National Geographic NG: Исследователь 2.0: Раскройте пошире глаза / Explorer. Eyes Wide Open [сезон 8 эпизод 06] (Brooke Runnette) [2016 г., Документальный, научно-познавательный, HDTVRip 720p] skorpionN 1.46 GB
Показать сообщения:    

Текущее время: Сегодня 04:57

Часовой пояс: GMT



Вы не можете начинать темы
Вы не можете отвечать на сообщения
Вы не можете редактировать свои сообщения
Вы не можете удалять свои сообщения
Вы не можете голосовать в опросах
Вы не можете прикреплять файлы к сообщениям
Вы не можете скачивать файлы