NG: Инстинкт выживания / Primal Survivor [сезон 1 cерии 1-9 из 9] (Энтони Баруэлл, Розалинд Бэйн / Anthony Barwell, Rosalind Bain) [2015 г., Документальный, SATRip]

 
Автор Сообщение

skorpionN ®

Пол:

Стаж: 1 год 8 месяцев

Сообщений: 592



Награды: 4 (Подробнее)

Mega Seeder 1 (Количество: 1) Mega Seeder 2 (Количество: 1) Top Releaser 2 (Количество: 1)
Торрент-статистика

Создавать темы 17-Июн-2016 17:25

[Цитировать]

NG: Инстинкт выживания / Primal Survivor [сезон 1 cерии 1-9 из 9]
Год выпуска: 2015
Страна: США, Icon Films for National Gepgraphic Channels
Жанр: Документальный
Продолжительность: 9x ~ 00:44:00
Перевод: Профессиональный (одноголосый), студия "Велес" - текст читает Сергей Куприянов
Режиссер: Энтони Баруэлл, Розалинд Бэйн / Anthony Barwell, Rosalind Bain
В ролях: Хэйзен Оудел - журналист и инструктор по выживанию в дикой природе
Описание: Хэйзен Оудел - журналист и инструктор по выживанию в дикой природе. В этом фильме он отправляется в самые негостеприимные уголки мира, чтобы применить навыки, которым его научили местные обитатели.
Список серий:
01. Легенда о каннибалах / Cannibal Legend
Хейзен Одел пытается найти бывшую деревню каннибалов, для этого ему приходится преодолевать озёра, полные крокодилов.
02. Жестокие джунгли / Savage Jungle
Хейзен Одел отправляется в Дарьенский пробел, чтобы выжить там, как это делали мужчины племени Эмбера.
03. Невыносимый холод / Killer Cold
Путешественник Хейзен Одел в одиночку постарается доставить 200 северных оленей в их родные пенаты на Полярном круге
04. В бурных водах / Into Raging Waters
На юго-востоке Азии Хейзен, проявив чудеса смелости, забирается в сердце мощных водопадов и ловит рыбу на смертельно опасных порогах.
05. Опасное восхождение / Killer Climb
Используя лишь примитивные инструменты и знания племени Масаи, Хейзену придётся забраться на двухкилометровую вершину активного вулкана.
06. Смертельные воды / Deadly Waters
Хэзен в одиночку попытается преодолеть традиционное путешествие по океану к удалённым угодьям рыболовов. Раньше так делали кочевники Bajau.
07. Кислородное голодание / Thin Air
У подножий Гималаев Хэзен Одел начинает путешествие со стадом яков по диким землям к древнему городу Ломантанг.
08. Выжженная земля / Scorched Earth
Хэзен Одел отправляется в невероятное путешествие по следам берберов и попытается преодолеть Сахару и достичь оазиса.
09. Мстер-класс / Ultimate Guide
В этом захватывающем мастер-классе Хэзен Одел расскажет и покажет, чего стоит звание "эксперт по выживанию".
Качество: SATRip
Формат: AVI
Видео кодек: XviD
Аудио кодек: AC3
Видео: 720x400 25fps 1800kbps
Аудио: AC3 2ch, 48kHz, 192 kbps

Скриншоты


MediaInfo:

Format : AVI
Format/Info : Audio Video Interleave
File size : 629 MiB
Duration : 43mn 59s
Overall bit rate : 1 998 Kbps
Writing application : TMPGEnc Video Mastering Works 5 Version. 5.0.6.38
Writing library : TMPGEnc Video Mastering Works 5 Version. 5.0.6.38
Video
ID : 0
Format : MPEG-4 Visual
Format profile : Advanced Simple@L5
Format settings, BVOP : 2
Format settings, QPel : No
Format settings, GMC : No warppoints
Format settings, Matrix : Default (H.263)
Muxing mode : Packed bitstream
Codec ID : XVID
Codec ID/Hint : XviD
Duration : 43mn 59s
Bit rate : 1 799 Kbps
Width : 720 pixels
Height : 400 pixels
Display aspect ratio : 16:9
Frame rate : 25.000 fps
Color space : YUV
Chroma subsampling : 4:2:0
Bit depth : 8 bits
Scan type : Progressive
Compression mode : Lossy
Bits/(Pixel*Frame) : 0.250
Stream size : 566 MiB (90%)
Writing library : XviD 73
Audio
ID : 1
Format : AC-3
Format/Info : Audio Coding 3
Mode extension : CM (complete main)
Format settings, Endianness : Big
Codec ID : 2000
Duration : 43mn 59s
Bit rate mode : Constant
Bit rate : 192 Kbps
Channel(s) : 2 channels
Channel positions : Front: L R
Sampling rate : 48.0 KHz
Compression mode : Lossy
Stream size : 60.4 MiB (10%)
Alignment : Aligned on interleaves
Interleave, duration : 240 ms (6.00 video frames)
Interleave, preload duration : 224 ms

Внимание:

Раздача ведётся путём добавления новых серий; при каждом добавлении создаётся новый торрент. Чтобы начать докачку новой серии, пользователям необходимо сделать следующее:
- Остановить скачивание.
- Удалить старый торрент у себя из клиента (старые серии удалять не надо).
- Скачать новый торрент и запустить его у себя в клиенте вместо старого, при этом указать клиенту путь в старую папку куда и должно происходить скачивание новых серий.
Добавлено
02. Жестокие джунгли / Savage Jungle
[Профиль] [ЛС]
Кто просматривает тему:

Показать сообщения:    

Текущее время: Сегодня 00:27

Часовой пояс: GMT



Вы не можете начинать темы
Вы не можете отвечать на сообщения
Вы не можете редактировать свои сообщения
Вы не можете удалять свои сообщения
Вы не можете голосовать в опросах
Вы не можете прикреплять файлы к сообщениям
Вы не можете скачивать файлы