NG: Великие рейды Второй мировой войны / WWII's Greatest Raids (2014) HDTVRip (6 серий из 6)

 
Автор Сообщение

sergej644 ®

Пол:

Стаж: 4 года 11 месяцев

Сообщений: 6045

Откуда: Soviet Union



Награды: Нет

Торрент-статистика

Создавать темы 16-Окт-2014 10:59

[Цитировать]

-National Geographic. Великие рейды Второй мировой войны (6 серий из 6) / WWII's Greatest Raids (2014) HDTVRip-Режиссер / Телекомпания: National Geographic
Год выпуска: 2014
Жанр: Документальный, война, история
Описание:
Во Второй мировой войне ход истории меняли самые невероятные операции войск специального назначения. Иногда небольшие специальные военные отряды могут решить исход боя. Теперь мы можем пересказать эти события, как никогда достоверно. Используя последние достижения графики, экспертный анализ, реальное оружие и взрывчатку, а также воспоминания людей, которые творили историю. Мы в точности восстанавливаем каждую минуту этих событий. Теперь мы можем узнать, что помогло одержать победу: опыт, искусная тактика или просто удача. Эти увлекающие серии документального сериала расскажут о некоторых элитных отрядах сил специального назначения, которые воевали во Второй мировой войне. Как некоторые их опасные и рискованные операции повлияли на ход Второй мировой войны - благодаря уникальному сочетанию превосходных навыков, тщательной подготовке и совершенному снаряжению. Узнайте подробности о важнейших битвах Второй мировой войны и роли отважных солдат войск союзников, рисковавших жизнью, чтобы победить Гитлера.
Доп. информация: HDTVRip by alf62

Продолжительность: 6 х ~ 00:44:00
Качество видео: HDTVRip
Перевод: Одноголосый закадровый, профессиональный
Видеокодек: DivX 5
Битрейт видео: ~1800 kb/s
Размер кадра: 720x400
Аудиокодек: AC3
Битрейт аудио: 192 kb/s (2 канала, stereo) CBR

Список выпусков/серий

1. Рейнджеры всегда впереди / Rangers Lead the Way
6 июня 1944 года. Американские рейнджеры возглавляют крупнейшую десантную операцию в истории - высадку союзных войск на побережье Франции.
2. Резня в горах / Mountain massacre
В этой серии, забытое ныне спецподразделение, состоящее из солдат двух стран, осуществляет смертельно опасную ночную атаку, в отчаянной попытке сдвинуть с мертвой точки ход войны в Италии. Эта чрезвычайно рискованная операция, могла изменить линию второго фронта в южной Европе.
3. Последний мост Гитлера / Hitler's Last Bridge
7 марта 1945 года. 9-я бронетанковая дивизия США проводит операцию по взятию Ремагенского моста, важного объекта на пути к центру Третьего Рейха.
4. Удар с воздуха / Strike From the Sky
Британские парашютисты-десантники должны захватить два ключевых моста на севере Франции, чтобы защитить плацдарм войск Союзников в Нормандии.
5. Британские десантники против Роммеля / Sas Vs Rommel
После успешного рейда специальной воздушно-десантной службы Британии на немецкий аэродром в Ливийской пустыне, Люфтваффе стремится отомстить.
6. Смертельная миссия коммандос / Commando Do Or Die
На корабле, полном взрывчатки и закамуфлированном под немецкий миноносец, британские коммандос должны были плыть сквозь ураганный огонь врага.

MediaInfo

WWII.Greatest.Raids.2014.DivX.HDTVRip.alf62\WWII.Greatest.Raids.(1.serija.iz.6).Rejndzhery.vsegda.vperedi.2014.DivX.HDTVRip.alf62.avi
Формат : AVI
Формат/Информация : Audio Video Interleave
Размер файла : 630 Мбайт
Продолжительность : 43 м.
Общий поток : 2002 Кбит/сек
Библиотека кодирования : Boilsoft Joiner build 2411/release
Видео
Идентификатор : 0
Формат : MPEG-4 Visual
Профиль формата : Advanced Simple@L5
Параметр BVOP формата : 2
Параметр QPel формата : Нет
Параметр GMC формата : Без точки перехода
Параметр матрицы формата : Default (MPEG)
Идентификатор кодека : DX50
Идентификатор кодека/Подсказка : DivX 5
Продолжительность : 43 м.
Битрейт : 1800 Кбит/сек
Ширина : 720 пикселей
Высота : 400 пикселей
Соотношение сторон : 16:9
Частота кадров : 25,000 кадров/сек
Цветовое пространство : YUV
Субдискретизация насыщенности : 4:2:0
Битовая глубина : 8 бит
Тип развёртки : Прогрессивная
Метод сжатия : С потерями
Бит/(Пиксели*Кадры) : 0.250
Размер потока : 566 Мбайт (90%)
Библиотека кодирования : XviD 73
Аудио
Идентификатор : 1
Формат : AC-3
Формат/Информация : Audio Coding 3
Расширение режима : CM (complete main)
Параметр Endianness формата : Big
Идентификатор кодека : 2000
Продолжительность : 43 м.
Вид битрейта : Постоянный
Битрейт : 192 Кбит/сек
Каналы : 2 канала
Расположение каналов : Front: L R
Частота : 48,0 КГц
Битовая глубина : 16 бит
Метод сжатия : С потерями
Задержка видео : 16 мс.
Размер потока : 60,4 Мбайт (10%)
Выравнивание : Разделение по промежуткам
Продолжительность промежутка : 40 мс. (1,00 видеокадр)
Время предзагрузки промежутка : 500 мс.
Скриншоты:

Время раздачи: 24/7 (круглосуточно)
[Профиль] [ЛС]
Кто просматривает тему:

Показать сообщения:    

Текущее время: Сегодня 11:54

Часовой пояс: GMT



Вы не можете начинать темы
Вы не можете отвечать на сообщения
Вы не можете редактировать свои сообщения
Вы не можете удалять свои сообщения
Вы не можете голосовать в опросах
Вы не можете прикреплять файлы к сообщениям
Вы не можете скачивать файлы