Need for Speed: Жажда скорости / Need for Speed (2014) BDRip 1080p | 60fps | D | Лицензия

 
Автор Сообщение

Russian Mafia ®

Пол:

Стаж: 1 год 8 месяцев

Сообщений: 4257



Награды: 10 (Подробнее)

Mega Seeder 2 (Количество: 1) Mega Seeder 3 (Количество: 1) Top Releaser 5 (Количество: 1)
Торрент-статистика

Создавать темы 01-Сен-2016 14:52

[Цитировать]

Информация о фильме
Название: Need for Speed: Жажда скорости 60fps
Оригинальное название: Need for Speed
Год выхода: 2014
Режиссер: Скотт Во
В ролях: Аарон Пол, Доминик Купер, Имоджен Путс, Дакота Джонсон, Майкл Китон, Рамон Родригес, Ник Чинланд, Скотт Мескади, Рами Малек, Харрисон Джилбертсон
О фильме:
История Тоби Маршалла, гениального автомеханика, чьей единственной отдушиной является участие в подпольных гонках. Чтобы сохранить семейную мастерскую, Тоби вынужден взять в партнеры богатого и заносчивого бывшего гонщика NASCAR Дино Брюстера. Когда дела Тоби наконец-то начинают идти в гору, Дино подставляет партнера, и Тоби обвиняют в преступлении, которого он не совершал. Спустя два года Тоби выходит из тюрьмы с мыслью о мести. Чтобы достичь своей цели, ему придется совершить невозможное и доказать, что даже в мире броских суперкаров самый невзрачный гонщик может финишировать первым.

Страна: США, Великобритания, Франция, Филиппины
Продолжительность: 02:10:42
Перевод: Профессиональный (полное дублирование) Лицензия
Файл
Кодек: х264/V_MPEG4/ISO/AVC
Качество: BDRip 1080 60fps
Видео: 1920x1080 , 14000 , 59.940 fps
Звук: AC3 5.1, 640 kbps, 48 KHz, 16-bit [Русский - дублированный «Blu-ray 3D EUR»

MI

General
Unique ID : 237128865609281230095326266979936836846 (0xB2655BB941D1D373A1E4BB93F3EF1CEE)
Complete name : F:Торент60fpsNeed.for.Speed.Жажда.скорости-Need.for.Speed.(2014).BDRIP.GTP.[1080p60fps].mkv
Format : Matroska
Format version : Version 4 / Version 2
File size : 13.2 GiB
Duration : 2h 10mn
Overall bit rate : 14.4 Mbps
Movie name : Need for Speed (2014) / Lelya_K for NNM-Club
Encoded date : UTC 2016-08-31 08:46:51
Writing application : mkvmerge v9.4.0 ('Knurl') 64bit
Writing library : libebml v1.3.4 + libmatroska v1.4.5
Cover : Yes
Attachments : cover.jpg
Video
ID : 1
Format : AVC
Format/Info : Advanced Video Codec
Format profile : High@L4.2
Format settings, CABAC : Yes
Format settings, ReFrames : 4 frames
Codec ID : V_MPEG4/ISO/AVC
Duration : 2h 10mn
Bit rate : 14.0 Mbps
Width : 1 920 pixels
Height : 1 080 pixels
Display aspect ratio : 16:9
Frame rate mode : Constant
Frame rate : 59.940 fps
Color space : YUV
Chroma subsampling : 4:2:0
Bit depth : 8 bits
Scan type : Progressive
Bits/(Pixel*Frame) : 0.113
Stream size : 12.6 GiB (96%)
Title : GTP
Writing library : x264 core 146 r2538 121396c
Encoding settings : cabac=1 / ref=3 / deblock=1:0:0 / analyse=0x3:0x113 / me=hex / subme=7 / psy=1 / psy_rd=1.00:0.10 / mixed_ref=1 / me_range=16 / chroma_me=1 / trellis=1 / 8x8dct=1 / cqm=0 / deadzone=21,11 / fast_pskip=1 / chroma_qp_offset=-3 / threads=12 / lookahead_threads=2 / sliced_threads=0 / nr=0 / decimate=1 / interlaced=0 / bluray_compat=0 / constrained_intra=0 / bframes=3 / b_pyramid=2 / b_adapt=1 / b_bias=0 / direct=1 / weightb=1 / open_gop=0 / weightp=2 / keyint=600 / keyint_min=59 / scenecut=40 / intra_refresh=0 / rc_lookahead=40 / rc=2pass / mbtree=1 / bitrate=14000 / ratetol=1.0 / qcomp=0.60 / qpmin=0 / qpmax=69 / qpstep=4 / cplxblur=20.0 / qblur=0.5 / vbv_maxrate=14000 / vbv_bufsize=14000 / nal_hrd=none / filler=0 / ip_ratio=1.40 / aq=1:1.00
Language : English
Default : Yes
Forced : No
Audio
ID : 2
Format : AC-3
Format/Info : Audio Coding 3
Mode extension : CM (complete main)
Format settings, Endianness : Big
Codec ID : A_AC3
Duration : 2h 10mn
Bit rate mode : Constant
Bit rate : 640 Kbps
Channel(s) : 6 channels
Channel positions : Front: L C R, Side: L R, LFE
Sampling rate : 48.0 KHz
Frame rate : 31.250 fps (1536 spf)
Compression mode : Lossy
Stream size : 598 MiB (4%)
Title : AC3 5.1 / 640 kbps / Dub (Blu-ray 3D EUR)
Language : Russian
Default : Yes
Forced : No
Text
ID : 3
Format : UTF-8
Codec ID : S_TEXT/UTF8
Codec ID/Info : UTF-8 Plain Text
Duration : 2h 3mn
Bit rate : 0 bps
Count of elements : 11
Stream size : 575 Bytes (0%)
Title : Forced
Language : Russian
Default : Yes
Forced : No
Menu
00:00:00.000 : en:Chapter 1
00:03:54.734 : en:Chapter 2
00:07:49.760 : en:Chapter 3
00:14:28.033 : en:Chapter 4
00:20:43.533 : en:Chapter 5
00:26:18.159 : en:Chapter 6
00:28:45.974 : en:Chapter 7
00:37:46.472 : en:Chapter 8
00:42:07.608 : en:Chapter 9
00:50:33.613 : en:Chapter 10
00:56:00.482 : en:Chapter 11
01:05:09.864 : en:Chapter 12
01:12:09.325 : en:Chapter 13
01:18:21.029 : en:Chapter 14
01:25:07.143 : en:Chapter 15
01:32:55.653 : en:Chapter 16
01:36:38.083 : en:Chapter 17
01:39:49.441 : en:Chapter 18
01:49:47.872 : en:Chapter 19
01:55:41.684 : en:Chapter 20
02:02:22.752 : en:Chapter 21
[Профиль] [ЛС]
Показать сообщения:    

Текущее время: Сегодня 02:14

Часовой пояс: GMT



Вы не можете начинать темы
Вы не можете отвечать на сообщения
Вы не можете редактировать свои сообщения
Вы не можете удалять свои сообщения
Вы не можете голосовать в опросах
Вы не можете прикреплять файлы к сообщениям
Вы не можете скачивать файлы