Need for Speed: Жажда скорости в 3Д / Need for Speed 3D (Скотт Во / Scott Waugh) [2014, боевик, триллер, драма, криминал, BDRip-AVC] Dub BD EUR + Original Eng + Sub Rus, Eng Half SideBySide / Горизонтальная анаморфная стереопара

 
Автор Сообщение

TorrentFilm ®

Пол:

Стаж: 2 года

Сообщений: 7741



Награды: Нет

Торрент-статистика

Создавать темы 17-Фев-2016 00:00

[Цитировать]

Need for Speed: Жажда скорости / Need for Speed- Год выпуска: 2014
Страна: США, Филиппины, Ирландия, Великобритания
Жанр: боевик, триллер, драма, криминал
Продолжительность: 02:10:53
Перевод: Профессиональный (дублированный) BD EUR
Субтитры: русские (forced, full), английские (full)-Режиссер: Скотт Во / Scott Waugh
В ролях: Аарон Пол, Доминик Купер, Имоджен Путс, Дакота Джонсон, Майкл Китон, Рамон Родригес, Ник Чинланд, Скотт Мескади, Рами Малек, Харрисон Джилбертсон.
Описание: История Тоби Маршалла, гениального автомеханика, чьей единственной отдушиной является участие в подпольных гонках. Чтобы сохранить семейную мастерскую, Тоби вынужден взять в партнеры богатого и заносчивого бывшего гонщика NASCAR Дино Брюстера. Когда дела Тоби наконец-то начинают идти в гору, Дино подставляет партнера, и Тоби обвиняют в преступлении, которого он не совершал. Спустя два года Тоби выходит из тюрьмы с мыслью о мести. Чтобы достичь своей цели, ему придется совершить невозможное и доказать, что даже в мире броских суперкаров самый невзрачный гонщик может финишировать первым.-Rip by CHD
Качество: BDRip
Контейнер: MKV | Sample
Формат 3D: Half SideBySide | Горизонтальная анаморфная стереопара
Видео кодек: x264
Аудио кодек: AC3, DTS
Видео: 1920x1080 (16:9), 23.976 fps, x264@L4.1 ~11800 kbps avg
Аудио 1: Russian 48 kHz, AC3, 3/2 (L,C,R,l,r) + LFE ch, 640.00 kbps avg | BD EUR
Аудио 2: English 48 kHz, DTS, 3/2 (L,C,R,l,r) + LFE ch, 1509.00 kbps avg | Original

3D

Формат 3D: Anamorph SideBySide / Горизонтальная анаморфная стереопара Порядок ракурсов: левый ракурс первый Просмотр рекомендован на специализированнном оборудовании: 3D blu-ray плеер (ps3) + 3D телевизор + 3D очки или с комплектом NVIDIA® 3D Vision™, способным обеспечить работу с 3D на ПК.
Смотрим при помощи CyberLink PowerDVD 10 Ultra 3D или Arcsoft TotalMedia Theatre 5 или чем нибудь еще - на ваше усмотрение...
При использовании Arcsoft TotalMedia Theatre 3 установите плагин sim3D.
Медиаинфо">

Скриншоты Медиаинфо


Общее
Формат : Matroska
Версия формата : Version 4 / Version 2
Размер файла : 13,0 Гбайт
Продолжительность : 2 ч. 10 м.
Общий поток : 14,2 Мбит/сек
Название фильма : Need for speed 2014
Дата кодирования : UTC 2014-07-19 10:44:56
Программа кодирования : mkvmerge v6.1.0 ('Old Devil') built on Mar 4 2013 09:10:42
Библиотека кодирования : libebml v1.3.0 + libmatroska v1.4.0
Видео
Идентификатор : 1
Формат : AVC
Формат/Информация : Advanced Video Codec
Профиль формата : High@L4.1
MultiView_Count : 2
MultiView_Layout : Side by Side (left eye first)
Параметр CABAC формата : Да
Параметр ReFrames формата : 4 кадра
Идентификатор кодека : V_MPEG4/ISO/AVC
Продолжительность : 2 ч. 10 м.
Битрейт : 11,8 Мбит/сек
Ширина : 1920 пикселей
Высота : 1080 пикселей
Соотношение сторон : 16:9
Режим частоты кадров : Постоянный
Частота кадров : 23,976 кадра/сек
Цветовое пространство : YUV
Субдискретизация насыщенности : 4:2:0
Битовая глубина : 8 бит
Тип развёртки : Прогрессивная
Бит/(Пиксели*Кадры) : 0.237
Размер потока : 10,8 Гбайт (83%)
Заголовок : BDRip 1080p 3D
Библиотека кодирования : x264 core 142 r2389 956c8d8
Настройки программы : cabac=1 / ref=4 / deblock=1:-3:-3 / analyse=0x3:0x113 / me=umh / subme=10 / psy=1 / psy_rd=1.00:0.00 / mixed_ref=1 / me_range=32 / chroma_me=1 / trellis=2 / 8x8dct=1 / cqm=0 / deadzone=21,11 / fast_pskip=0 / chroma_qp_offset=-4 / threads=6 / lookahead_threads=1 / sliced_threads=0 / nr=0 / decimate=0 / interlaced=0 / bluray_compat=0 / constrained_intra=0 / bframes=6 / b_pyramid=2 / b_adapt=2 / b_bias=0 / direct=3 / weightb=1 / open_gop=0 / weightp=2 / keyint=250 / keyint_min=23 / scenecut=40 / intra_refresh=0 / rc=crf / mbtree=0 / crf=17.0 / qcomp=0.80 / qpmin=0 / qpmax=69 / qpstep=4 / frame-packing=3 / ip_ratio=1.30 / pb_ratio=1.30 / aq=2:0.90
Язык : English
Default : Да
Forced : Нет
Аудио #1
Идентификатор : 2
Формат : AC-3
Формат/Информация : Audio Coding 3
Расширение режима : CM (complete main)
Параметр Endianness формата : Big
Идентификатор кодека : A_AC3
Продолжительность : 2 ч. 10 м.
Вид битрейта : Постоянный
Битрейт : 640 Кбит/сек
Каналы : 6 каналов
Расположение каналов : Front: L C R, Side: L R, LFE
Частота : 48,0 КГц
Битовая глубина : 16 бит
Метод сжатия : С потерями
Размер потока : 599 Мбайт (4%)
Заголовок : BD EUR
Язык : Russian
Default : Да
Forced : Нет
Аудио #2
Идентификатор : 3
Формат : DTS
Формат/Информация : Digital Theater Systems
Режим : 16
Параметр Endianness формата : Big
Идентификатор кодека : A_DTS
Продолжительность : 2 ч. 10 м.
Вид битрейта : Постоянный
Битрейт : 1509 Кбит/сек
Каналы : 6 каналов
Расположение каналов : Front: L C R, Side: L R, LFE
Частота : 48,0 КГц
Битовая глубина : 24 бит
Метод сжатия : С потерями
Размер потока : 1,38 Гбайт (11%)
Заголовок : Original
Язык : English
Default : Нет
Forced : Нет
Текст #1
Идентификатор : 4
Формат : UTF-8
Идентификатор кодека : S_TEXT/UTF8
Идентификатор кодека/Информация : UTF-8 Plain Text
Заголовок : Forced
Язык : Russian
Default : Да
Forced : Нет
Текст #2
Идентификатор : 5
Формат : UTF-8
Идентификатор кодека : S_TEXT/UTF8
Идентификатор кодека/Информация : UTF-8 Plain Text
Заголовок : Full
Язык : Russian
Default : Нет
Forced : Нет
Текст #3
Идентификатор : 6
Формат : UTF-8
Идентификатор кодека : S_TEXT/UTF8
Идентификатор кодека/Информация : UTF-8 Plain Text
Заголовок : Full
Язык : English
Default : Нет
Forced : Нет
Меню
00:00:00.000 : :1 - 0:00:00
00:03:54.734 : :2 - 0:03:54
00:07:49.760 : :3 - 0:07:49
00:14:28.033 : :4 - 0:14:28
00:20:43.533 : :5 - 0:20:43
00:26:18.159 : :6 - 0:26:18
00:28:45.974 : :7 - 0:28:45
00:37:46.472 : :8 - 0:37:46
00:42:07.608 : :9 - 0:42:07
00:50:33.613 : :10 - 0:50:33
00:56:00.482 : :11 - 0:56:00
01:05:09.864 : :12 - 1:05:09
01:12:09.324 : :13 - 1:12:09
01:18:21.029 : :14 - 1:18:21
01:25:07.143 : :15 - 1:25:07
01:32:55.653 : :16 - 1:32:55
01:36:38.083 : :17 - 1:36:38
01:39:49.441 : :18 - 1:39:49
01:49:47.872 : :19 - 1:49:47
01:55:41.684 : :20 - 1:55:41
02:02:22.752 : :21 - 2:02:22
02:10:53.053 : :22 - 2:10:53
[Профиль] [ЛС]
Показать сообщения:    

Текущее время: Сегодня 10:26

Часовой пояс: GMT



Вы не можете начинать темы
Вы не можете отвечать на сообщения
Вы не можете редактировать свои сообщения
Вы не можете удалять свои сообщения
Вы не можете голосовать в опросах
Вы не можете прикреплять файлы к сообщениям
Вы не можете скачивать файлы