Need for Speed: Жажда скорости в 3Д / Need for Speed 3D (Скотт Во / Scott Waugh) [2014, боевик, триллер, драма, криминал, BDRip-AVC] Half OverUnder / Вертикальная анаморфная стереопара

 
Автор Сообщение

TorrentFilm ®

Пол:

Стаж: 2 года

Сообщений: 7741



Награды: Нет

Торрент-статистика

Создавать темы 19-Окт-2015 00:08

[Цитировать]

Need for Speed: Жажда скорости
Need for Speed
- Год выпуска: 2014
Страна: США, Филиппины, Ирландия, Великобритания
Жанр: боевик, триллер, драма, криминал
Продолжительность: 02:10:52
Перевод: Профессиональный (дублированный)
Русские субтитры: есть
Оригинальная аудиодорожка: английская-Режиссер: Скотт Во / Scott Waugh-В ролях: Аарон Пол, Доминик Купер, Имоджен Путс, Дакота Джонсон, Майкл Китон, Рамон Родригес, Ник Чинланд, Кид Кади, Рэми Малек, Харрисон Джилбертсон.-Описание: История Тоби Маршалла, гениального автомеханика, чьей единственной отдушиной является участие в подпольных гонках. Чтобы сохранить семейную мастерскую, Тоби вынужден взять в партнеры богатого и заносчивого бывшего гонщика NASCAR Дино Брюстера. Когда дела Тоби наконец-то начинают идти в гору, Дино подставляет партнера, и Тоби обвиняют в преступлении, которого он не совершал. Спустя два года Тоби выходит из тюрьмы с мыслью о мести. Чтобы достичь своей цели, ему придется совершить невозможное и доказать, что даже в мире броских суперкаров самый невзрачный гонщик может финишировать первым.-Формат 3D: Half OverUnder | Вертикальная анаморфная стереопара
Качество: BDRip-AVC (by CHD)
Контейнер: MKV
Видео: 1920x1080 (16:9), 23.976 fps, x264@L4.1 ~10800 kbps
Аудио 1: Russian 48 kHz, AC3, 3/2 (L,C,R,l,r) + LFE ch, 640.00 kbps | BD EUR
Аудио 2: Ukrainian 48 kHz, AC3, 3/2 (L,C,R,l,r) + LFE ch, 384.00 kbps | DUB
Аудио 3: English 48 kHz, AC3, 3/2 (L,C,R,l,r) + LFE ch, 1536.00 kbps | BD EUR
Субтитры: русские форсированные, русские полные, английские полные

Инфо

x264 log
x264 [info]: frame I:1672 Avg QP:15.56 size:193797
x264 [info]: frame P:47411 Avg QP:16.70 size:105876
x264 [info]: frame B:139208 Avg QP:18.57 size: 39943-Формат : Matroska
Версия формата : Version 3 / Version 2
Размер файла : 12,5 Гбайт
Продолжительность : 2 ч. 10 м.
Общий поток : 13,6 Мбит/сек
Название фильма : Need for speed (2014) 3D
Дата кодирования : UTC 2014-07-19 12:57:14
Программа кодирования : mkvmerge v5.7.0 ('The Whirlwind') built on Aug 7 2012 14:11:40
Библиотека кодирования : libebml v1.2.3 + libmatroska v1.3.0
Attachment : Yes
Видео
Идентификатор : 1
Формат : AVC
Формат/Информация : Advanced Video Codec
Профиль формата : High@L4.1
MultiView_Count : 2
MultiView_Layout : Top-Bottom (left eye first)
Параметр CABAC формата : Да
Параметр ReFrames формата : 4 кадра
Идентификатор кодека : V_MPEG4/ISO/AVC
Продолжительность : 2 ч. 10 м.
Битрейт : 10,8 Мбит/сек
Ширина : 1920 пикселей
Высота : 1080 пикселей
Соотношение сторон : 16:9
Режим частоты кадров : Постоянный
Частота кадров : 23,976 кадра/сек
Цветовое пространство : YUV
Субдискретизация насыщенности : 4:2:0
Битовая глубина : 8 бит
Тип развёртки : Прогрессивная
Бит/(Пиксели*Кадры) : 0.218
Размер потока : 9,91 Гбайт (79%)
Заголовок : Need.for.Speed.Жажда.скорости-Need.for.Speed.(2014).BDRip.[1080p].3D
Библиотека кодирования : x264 core 142 r2389 956c8d8
Настройки программы : cabac=1 / ref=4 / deblock=1:-3:-3 / analyse=0x3:0x113 / me=umh / subme=10 / psy=1 / psy_rd=1.00:0.00 / mixed_ref=1 / me_range=32 / chroma_me=1 / trellis=2 / 8x8dct=1 / cqm=0 / deadzone=21,11 / fast_pskip=0 / chroma_qp_offset=-4 / threads=6 / lookahead_threads=1 / sliced_threads=0 / nr=0 / decimate=0 / interlaced=0 / bluray_compat=0 / constrained_intra=0 / bframes=6 / b_pyramid=2 / b_adapt=2 / b_bias=0 / direct=3 / weightb=1 / open_gop=0 / weightp=2 / keyint=250 / keyint_min=23 / scenecut=40 / intra_refresh=0 / rc=crf / mbtree=0 / crf=17.0 / qcomp=0.80 / qpmin=0 / qpmax=69 / qpstep=4 / frame-packing=4 / ip_ratio=1.30 / pb_ratio=1.30 / aq=2:0.90
Язык : English
Default : Да
Forced : Нет
Аудио #1
Идентификатор : 2
Формат : AC-3
Формат/Информация : Audio Coding 3
Расширение режима : CM (complete main)
Параметр Endianness формата : Big
Идентификатор кодека : A_AC3
Продолжительность : 2 ч. 10 м.
Вид битрейта : Постоянный
Битрейт : 640 Кбит/сек
Каналы : 6 каналов
Расположение каналов : Front: L C R, Side: L R, LFE
Частота : 48,0 КГц
Битовая глубина : 16 бит
Метод сжатия : С потерями
Размер потока : 599 Мбайт (5%)
Заголовок : AC3 5.1 / 640 kbps / Dub (Blu-ray 3D EUR)
Язык : Russian
Default : Да
Forced : Нет
Аудио #2
Идентификатор : 3
Формат : AC-3
Формат/Информация : Audio Coding 3
Расширение режима : CM (complete main)
Параметр Endianness формата : Big
Идентификатор кодека : A_AC3
Продолжительность : 2 ч. 10 м.
Вид битрейта : Постоянный
Битрейт : 384 Кбит/сек
Каналы : 6 каналов
Расположение каналов : Front: L C R, Side: L R, LFE
Частота : 48,0 КГц
Битовая глубина : 16 бит
Метод сжатия : С потерями
Размер потока : 359 Мбайт (3%)
Заголовок : AC3 5.1 / 384 kbps / Dub (центральный канал line)
Язык : Ukrainian
Default : Нет
Forced : Нет
Аудио #3
Идентификатор : 4
Формат : DTS
Формат/Информация : Digital Theater Systems
Идентификатор кодека : A_DTS
Продолжительность : 2 ч. 10 м.
Вид битрейта : Постоянный
Битрейт : 1510 Кбит/сек
Каналы : 6 каналов
Расположение каналов : Front: L C R, Side: L R, LFE
Частота : 48,0 КГц
Битовая глубина : 24 бит
Метод сжатия : С потерями
Размер потока : 1,38 Гбайт (11%)
Заголовок : DTS 5.1 / 1536 kbps / Original
Язык : English
Default : Нет
Forced : Нет
Текст #1
Идентификатор : 5
Формат : UTF-8
Идентификатор кодека : S_TEXT/UTF8
Идентификатор кодека/Информация : UTF-8 Plain Text
Заголовок : Forced
Язык : Russian
Default : Да
Forced : Нет
Текст #2
Идентификатор : 6
Формат : UTF-8
Идентификатор кодека : S_TEXT/UTF8
Идентификатор кодека/Информация : UTF-8 Plain Text
Заголовок : Full
Язык : Russian
Default : Нет
Forced : Нет
Текст #3
Идентификатор : 7
Формат : UTF-8
Идентификатор кодека : S_TEXT/UTF8
Идентификатор кодека/Информация : UTF-8 Plain Text
Заголовок : Full
Язык : English
Default : Нет
Forced : Нет
Меню
00:00:00.000 : en:00:00:00.000
00:03:54.734 : en:00:03:54.734
00:07:49.761 : en:00:07:49.761
00:14:28.034 : en:00:14:28.034
00:20:43.534 : en:00:20:43.534
00:26:18.160 : en:00:26:18.160
00:28:45.974 : en:00:28:45.974
00:37:46.473 : en:00:37:46.473
00:42:07.608 : en:00:42:07.608
00:50:33.614 : en:00:50:33.614
00:56:00.482 : en:00:56:00.482
01:05:09.864 : en:01:05:09.864
01:12:09.325 : en:01:12:09.325
01:18:21.030 : en:01:18:21.030
01:25:07.144 : en:01:25:07.144
01:32:55.653 : en:01:32:55.653
01:36:38.084 : en:01:36:38.084
01:39:49.442 : en:01:39:49.442
01:49:47.873 : en:01:49:47.873
01:55:41.685 : en:01:55:41.685
02:02:22.752 : en:02:02:22.752

Скриншоты

[Профиль] [ЛС]
Показать сообщения:    

Текущее время: Сегодня 14:44

Часовой пояс: GMT



Вы не можете начинать темы
Вы не можете отвечать на сообщения
Вы не можете редактировать свои сообщения
Вы не можете удалять свои сообщения
Вы не можете голосовать в опросах
Вы не можете прикреплять файлы к сообщениям
Вы не можете скачивать файлы