(Hard Rock) Nazareth - Move Me - 1994 [FLAC, image+.cue, lossless]

 
Автор Сообщение

sergej644 ®

Пол:

Стаж: 4 года 11 месяцев

Сообщений: 6045

Откуда: Soviet Union



Награды: Нет

Торрент-статистика

Создавать темы 03-Июл-2015 15:48

[Цитировать]

-Nazareth / Move Me-- Год издания: 1994
Страна: UK
Жанр: Hard Rock
Продолжительность: 00:56:06-Лейбл издания: Polydor
Страна-выпуска диска: Germany
Номер по каталогу: 523 653-2
Источник (релизер): sergej644-Формат: FLAC
Битрейт аудио: lossless
Тип рипа: image+.cue
Наличие сканов в содержимом раздачи: да
-

Трэклист

01. Let Me Be Your Dog (04:38)
02. Can't Shake Those Shakes (03:23)
03. Crack Me Up (03:43)
04. Move Me (03:46)
05. Steamroller (04:30)
06. Stand By Your Beds (04:14)
07. Rip It Up (03:35)
08. Demon Alcohol (02:59)
09. You Had It Comin (05:01)
10. Bring It On Home To Mama (04:01)
11. Burning Down (04:46)
12. Raszamanaz (04:35)
13. My White Bicycle (02:57)
14. This Flight Tonight (04:03)
-

Лог создания рипа

Exact Audio Copy V1.0 beta 4 from 7. December 2014
Отчёт EAC об извлечении, выполненном 3. июля 2015, 15:29
Nazareth / Move Me
Дисковод: Optiarc DVD RW AD-7261S   Adapter: 2  ID: 0
Режим чтения                 : Достоверность
Использование точного потока : Да
Отключение кэша аудио        : Да
Использование указателей C2  : Нет
Коррекция смещения при чтении                     : 48
Способность читать области Lead-in и Lead-out     : Нет
Заполнение пропущенных сэмплов тишиной            : Да
Удаление блоков с тишиной в начале и конце        : Нет
При вычислениях CRC использовались нулевые сэмплы : Да
Интерфейс                                         : Установленный внешний ASPI-интерфейс
Выходной формат          : Пользовательский кодировщик
Выбранный битрейт        : 1024 kBit/s
Качество                 : Высокий
Добавление ID3-тега      : Нет
Утилита сжатия           : C:\Program Files (x86)\Exact Audio Copy\Flac\flac.exe
Дополнительные параметры : -V -8 -T "Date=%year%" -T "Genre=%genre%" %source%
TOC извлечённого CD
     Трек |   Старт  | Длительность | Начальный сектор | Конечный сектор
    ---------------------------------------------------------------------
       1  |  0:00.00 |    4:37.15   |           0      |      20789
       2  |  4:37.15 |    3:22.50   |       20790      |      35989
       3  |  7:59.65 |    3:41.72   |       35990      |      52636
       4  | 11:41.62 |    3:45.23   |       52637      |      69534
       5  | 15:27.10 |    4:29.02   |       69535      |      89711
       6  | 19:56.12 |    4:13.68   |       89712      |     108754
       7  | 24:10.05 |    3:34.70   |      108755      |     124874
       8  | 27:45.00 |    2:58.25   |      124875      |     138249
       9  | 30:43.25 |    5:00.50   |      138250      |     160799
      10  | 35:44.00 |    4:00.35   |      160800      |     178834
      11  | 39:44.35 |    4:45.45   |      178835      |     200254
      12  | 44:30.05 |    4:34.55   |      200255      |     220859
      13  | 49:04.60 |    2:56.52   |      220860      |     234111
      14  | 52:01.37 |    4:02.68   |      234112      |     252329
Характеристики диапазона извлечения и сообщения об ошибках
Выбранный диапазон
     Имя файла C:\Users\Sergej\Music\Nazareth - Move Me.wav
     Пиковый уровень 100.0 %
     Скорость извлечения 3.9 X
     Качество диапазона 100.0 %
     CRC теста B70E7A4C
     CRC копии B70E7A4C
     Копирование... OK
Ошибок не произошло
Конец отчёта
---- CUETools DB Plugin V2.1.4
[CTDB TOCID: nfPv_ddCdAoT2lrQnUNrx9T5.W8-] found
Submit result: already submitted
Track | CTDB Status
  1   | (12/12) Accurately ripped
  2   | (12/12) Accurately ripped
  3   | (12/12) Accurately ripped
  4   | (11/12) Accurately ripped
  5   | (12/12) Accurately ripped
  6   | (12/12) Accurately ripped
  7   | (12/12) Accurately ripped
  8   | (12/12) Accurately ripped
  9   | (12/12) Accurately ripped
10   | (12/12) Accurately ripped
11   | (12/12) Accurately ripped
12   | (12/12) Accurately ripped
13   | (12/12) Accurately ripped
14   | (11/12) Accurately ripped

Индексная карта (non-compilant .cue)

REM GENRE Rock
REM DATE 1994
REM DISCID D30D240E
REM COMMENT "ExactAudioCopy v1.0b4"
PERFORMER "Nazareth"
TITLE "Move Me"
FILE "Nazareth - Move Me.flac" WAVE
  TRACK 01 AUDIO
    TITLE "Let Me Be Your Dog"
    PERFORMER "Nazareth"
    INDEX 01 00:00:00
  TRACK 02 AUDIO
    TITLE "Can't Shake Those Shakes"
    PERFORMER "Nazareth"
    INDEX 00 04:37:12
    INDEX 01 04:37:15
  TRACK 03 AUDIO
    TITLE "Crack Me Up"
    PERFORMER "Nazareth"
    INDEX 00 07:59:62
    INDEX 01 07:59:65
  TRACK 04 AUDIO
    TITLE "Move Me"
    PERFORMER "Nazareth"
    INDEX 00 11:41:60
    INDEX 01 11:41:62
  TRACK 05 AUDIO
    TITLE "Steamroller"
    PERFORMER "Nazareth"
    INDEX 00 15:27:07
    INDEX 01 15:27:10
  TRACK 06 AUDIO
    TITLE "Stand By Your Beds"
    PERFORMER "Nazareth"
    INDEX 00 19:56:10
    INDEX 01 19:56:12
  TRACK 07 AUDIO
    TITLE "Rip It Up"
    PERFORMER "Nazareth"
    INDEX 00 24:10:02
    INDEX 01 24:10:05
  TRACK 08 AUDIO
    TITLE "Demon Alcohol"
    PERFORMER "Nazareth"
    INDEX 00 27:44:72
    INDEX 01 27:45:00
  TRACK 09 AUDIO
    TITLE "You Had It Comin"
    PERFORMER "Nazareth"
    INDEX 00 30:43:22
    INDEX 01 30:43:25
  TRACK 10 AUDIO
    TITLE "Bring It On Home To Mama"
    PERFORMER "Nazareth"
    INDEX 00 35:43:72
    INDEX 01 35:44:00
  TRACK 11 AUDIO
    TITLE "Burning Down"
    PERFORMER "Nazareth"
    INDEX 00 39:44:32
    INDEX 01 39:44:35
  TRACK 12 AUDIO
    TITLE "Raszamanaz"
    PERFORMER "Nazareth"
    INDEX 00 44:30:02
    INDEX 01 44:30:05
  TRACK 13 AUDIO
    TITLE "My White Bicycle"
    PERFORMER "Nazareth"
    INDEX 00 49:04:57
    INDEX 01 49:04:60
  TRACK 14 AUDIO
    TITLE "This Flight Tonight"
    PERFORMER "Nazareth"
    INDEX 00 52:01:32
    INDEX 01 52:01:37

Лог Audiochecker

AUDIOCHECKER v2.0 beta (build 457) - by Dester - opdester@freemail.hu
~~~~~~~~~~~~~~~~~~~~~~~~~~~~~~~~~~
-=== DO NOT EDIT THIS FILE! ===-
Path: ...\Nazareth - Move Me (Germany, Polydor, 523 653-2) 1994 FLAC
1 -=- Nazareth - Move Me.flac -=- CDDA (100%)
37461124

Скриншот спектра частот

--Не забываем говорить
[Профиль] [ЛС]
Показать сообщения:    

Текущее время: Сегодня 10:00

Часовой пояс: GMT



Вы не можете начинать темы
Вы не можете отвечать на сообщения
Вы не можете редактировать свои сообщения
Вы не можете удалять свои сообщения
Вы не можете голосовать в опросах
Вы не можете прикреплять файлы к сообщениям
Вы не можете скачивать файлы