(Hard Rock) Nazareth - Collections (9CD) (JAPAN AMR ARHIVE, Remaster 2006) - 1971 - 1978 [FLAC, image+.cue, lossless]

 
Автор Сообщение

sergej644 ®

Пол:

Стаж: 4 года 11 месяцев

Сообщений: 6036

Откуда: Soviet Union



Награды: Нет

Торрент-статистика

Создавать темы 19-Июл-2015 09:41

[Цитировать]

-Nazareth / Collections (9CD) (JAPAN AMR ARHIVE, Remaster 2006)-- Год издания: 1971 - 1978
Страна: UK
Жанр: Hard Rock
Продолжительность: 08:26:59-Лейбл издания: AIRAC (AMR ARHIVE)
Страна-выпуска диска: JAPAN
Номер по каталогу: по каждому диску отдельно
Формат: FLAC
Битрейт аудио: lossless
Тип рипа: image+.cue
Наличие сканов в содержимом раздачи: да
-

Трэклист

1971 - Nazareth

Год выпуска: 2006
Лейбл издания: AIRAC (AMR ARHIVE)
Номер по каталогу: R - 0640625
Продолжительность: 01:07:12
Страна производитель диска: JAPAN


01.Witchdoctor Woman (04:07)
02.Dear John (03:47)
03.Empty Arms, Empty Heart (03:14)
04.I Had A Dream (03:24)
05.Red Light Lady (06:00)
06.Fat Man (03:26)
07.Country Girl (04:07)
08.Morning Dew (07:08)
09.King Is Dead (04:53)
10.Friends (03:25)
11.Dear John (Single Edit Version) (02:46)
12.Morning Dew (Alternate Edit Version) (04:53)
13.Friends (Alternate Edit Version) (03:27)
14.Morning Dew (Extended Single Version) (08:08)
15.Witchdoctor Woman (Previously Unreleased Version) (04:36)

лог создания рипа

Exact Audio Copy V1.0 beta 6 from 9. April 2015
EAC extraction logfile from 22. April 2015, 18:11
Nazareth  / Nazareth (AIRAC - 1200)
Used drive  : PLEXTOR DVDR   PX-891SA   Adapter: 1  ID: 0
Read mode               : Secure
Utilize accurate stream : Yes
Defeat audio cache      : Yes
Make use of C2 pointers : No
Read offset correction                      : 6
Overread into Lead-In and Lead-Out          : No
Fill up missing offset samples with silence : Yes
Delete leading and trailing silent blocks   : No
Null samples used in CRC calculations       : Yes
Used interface                              : Native Win32 interface for Win NT & 2000
Used output format              : User Defined Encoder
Selected bitrate                : 1024 kBit/s
Quality                         : High
Add ID3 tag                     : No
Command line compressor         : C:\Program Files\Exact Audio Copy\Flac\flac.exe
Additional command line options :  -V -8 -T "Genre=%genre%" -T "Artist=%artist%" -T "Title=%title%" -T "Album=%albumtitle%" -T "Date=%year%" -T "Tracknumber=%tracknr%" -T "Comment=%comment%" %source%
TOC of the extracted CD
     Track |   Start  |  Length  | Start sector | End sector
    ---------------------------------------------------------
        1  |  0:00.00 |  4:06.52 |         0    |    18501
        2  |  4:06.52 |  3:46.59 |     18502    |    35510
        3  |  7:53.36 |  3:13.32 |     35511    |    50017
        4  | 11:06.68 |  3:23.52 |     50018    |    65294
        5  | 14:30.45 |  5:59.03 |     65295    |    92222
        6  | 20:29.48 |  3:25.19 |     92223    |   107616
        7  | 23:54.67 |  4:06.13 |    107617    |   126079
        8  | 28:01.05 |  7:07.32 |    126080    |   158136
        9  | 35:08.37 |  4:52.29 |    158137    |   180065
       10  | 40:00.66 |  3:24.21 |    180066    |   195386
       11  | 43:25.12 |  2:45.12 |    195387    |   207773
       12  | 46:10.24 |  4:52.15 |    207774    |   229688
       13  | 51:02.39 |  3:26.28 |    229689    |   245166
       14  | 54:28.67 |  8:07.33 |    245167    |   281724
       15  | 62:36.25 |  4:35.17 |    281725    |   302366
Range status and errors
Selected range
     Filename H:\dafnaplus\Nazareth\1971 Nazareth\Nazareth  - Nazareth (AIRAC - 1200).wav
     Peak level 96.6 %
     Extraction speed 9.2 X
     Range quality 100.0 %
     Test CRC C72B7FF0
     Copy CRC C72B7FF0
     Copy OK
No errors occurred
AccurateRip summary
Track  1  accurately ripped (confidence 3)  [46EFBE04]  (AR v2)
Track  2  accurately ripped (confidence 3)  [39F53CD4]  (AR v2)
Track  3  accurately ripped (confidence 3)  [0088059E]  (AR v2)
Track  4  accurately ripped (confidence 3)  [7D20C910]  (AR v2)
Track  5  accurately ripped (confidence 3)  [45C271B4]  (AR v2)
Track  6  accurately ripped (confidence 3)  [FF1FFC1F]  (AR v2)
Track  7  accurately ripped (confidence 3)  [B0DB1CB6]  (AR v2)
Track  8  accurately ripped (confidence 3)  [5F5BAA09]  (AR v2)
Track  9  accurately ripped (confidence 3)  [89B8C988]  (AR v2)
Track 10  accurately ripped (confidence 3)  [767B26D0]  (AR v2)
Track 11  accurately ripped (confidence 3)  [516F11BD]  (AR v2)
Track 12  accurately ripped (confidence 3)  [FC4672D4]  (AR v2)
Track 13  accurately ripped (confidence 3)  [8566B1A1]  (AR v2)
Track 14  accurately ripped (confidence 3)  [14AD40CE]  (AR v2)
Track 15  accurately ripped (confidence 3)  [2D3FB186]  (AR v2)
All tracks accurately ripped
End of status report
---- CUETools DB Plugin V2.1.6
[CTDB TOCID: djEQZGZ.wufIBUEm2tbuj1Ss1dw-] found
Submit result: already submitted
Track | CTDB Status
  1   | (1/1) Accurately ripped
  2   | (1/1) Accurately ripped
  3   | (1/1) Accurately ripped
  4   | (1/1) Accurately ripped
  5   | (1/1) Accurately ripped
  6   | (1/1) Accurately ripped
  7   | (1/1) Accurately ripped
  8   | (1/1) Accurately ripped
  9   | (1/1) Accurately ripped
10   | (1/1) Accurately ripped
11   | (1/1) Accurately ripped
12   | (1/1) Accurately ripped
13   | (1/1) Accurately ripped
14   | (1/1) Accurately ripped
15   | (1/1) Accurately ripped

содержание индексной карты *cue

REM GENRE Rock
REM DATE 2006
REM DISCID C90FBF0F
REM COMMENT "ExactAudioCopy v1.0b6"
PERFORMER "Nazareth "
TITLE "Nazareth (AIRAC - 1200)"
FILE "Nazareth  - Nazareth (AIRAC - 1200).flac" WAVE
  TRACK 01 AUDIO
    TITLE "Witchdoctor Woman"
    PERFORMER "Nazareth "
    ISRC GBCBR0401425
    INDEX 01 00:00:00
  TRACK 02 AUDIO
    TITLE "Dear John"
    PERFORMER "Nazareth "
    ISRC GBCBR0401426
    INDEX 01 04:06:52
  TRACK 03 AUDIO
    TITLE "Empty Arms, Empty Heart"
    PERFORMER "Nazareth "
    ISRC GBCBR0401427
    INDEX 01 07:53:36
  TRACK 04 AUDIO
    TITLE "I Had A Dream"
    PERFORMER "Nazareth "
    ISRC GBCBR0401428
    INDEX 01 11:06:68
  TRACK 05 AUDIO
    TITLE "Red Light Lady"
    PERFORMER "Nazareth "
    ISRC GBCBR0401429
    INDEX 01 14:30:45
  TRACK 06 AUDIO
    TITLE "Fat Man"
    PERFORMER "Nazareth "
    ISRC GBCBR0401430
    INDEX 01 20:29:48
  TRACK 07 AUDIO
    TITLE "Country Girl"
    PERFORMER "Nazareth "
    ISRC GBCBR0401431
    INDEX 01 23:54:67
  TRACK 08 AUDIO
    TITLE "Morning Dew"
    PERFORMER "Nazareth "
    ISRC GBCBR0401432
    INDEX 01 28:01:05
  TRACK 09 AUDIO
    TITLE "King Is Dead"
    PERFORMER "Nazareth "
    ISRC GBCBR0401433
    INDEX 01 35:08:37
  TRACK 10 AUDIO
    TITLE "Friends"
    PERFORMER "Nazareth "
    ISRC GBCBR0402129
    INDEX 00 39:55:58
    INDEX 01 40:00:66
  TRACK 11 AUDIO
    TITLE "Dear John (Single Edit Version)"
    PERFORMER "Nazareth "
    ISRC GBCBR0402130
    INDEX 01 43:25:12
  TRACK 12 AUDIO
    TITLE "Morning Dew (Alternate Edit Version)"
    PERFORMER "Nazareth "
    ISRC GBCBR0402131
    INDEX 01 46:10:24
  TRACK 13 AUDIO
    TITLE "Friends (Alternate Edit Version)"
    PERFORMER "Nazareth "
    ISRC GBCBR0402132
    INDEX 01 51:02:39
  TRACK 14 AUDIO
    TITLE "Morning Dew (Extended Single Version)"
    PERFORMER "Nazareth "
    ISRC GBCBR0402133
    INDEX 01 54:28:67
  TRACK 15 AUDIO
    TITLE "Witchdoctor Woman (Previously Unreleased Version)"
    PERFORMER "Nazareth "
    ISRC GBCBR0402134
    INDEX 01 62:36:25

1972 - Exercises

Год выпуска: 2006
Лейбл издания: AIRAC (AMR ARHIVE)
Номер по каталогу: R - 0640626
Продолжительность: 00:47:48
Страна производитель диска: JAPAN


01.I Will Not Be Led (03:05)
02.Cat's Eye, Apple Pie (03:02)
03.In My Time (03:29)
04.Woke Up This Morning (03:15)
05.Called Her Name (04:25)
06.Fool About You (02:47)
07.Love Now You're Gone (02:27)
08.Madelaine (05:56)
09.Sad Song (02:14)
10.1692 (Glencoe Massacre) (04:00)
11.If You See My Baby (02:59)
12.Woke Up This Morning (Alternate Edit Version) (03:32)
13.Love Now You're Gone (Alternate Edit Version) (03:18)
14.1692 (Glencoe Massacre) (Alternate Edit Version) (03:25)

лог создания рипа

Exact Audio Copy V1.0 beta 6 from 9. April 2015
EAC extraction logfile from 22. April 2015, 18:30
Nazareth / Exercises (AIRAC-1201)
Used drive  : PLEXTOR DVDR   PX-891SA   Adapter: 1  ID: 0
Read mode               : Secure
Utilize accurate stream : Yes
Defeat audio cache      : Yes
Make use of C2 pointers : No
Read offset correction                      : 6
Overread into Lead-In and Lead-Out          : No
Fill up missing offset samples with silence : Yes
Delete leading and trailing silent blocks   : No
Null samples used in CRC calculations       : Yes
Used interface                              : Native Win32 interface for Win NT & 2000
Used output format              : User Defined Encoder
Selected bitrate                : 1024 kBit/s
Quality                         : High
Add ID3 tag                     : No
Command line compressor         : C:\Program Files\Exact Audio Copy\Flac\flac.exe
Additional command line options :  -V -8 -T "Genre=%genre%" -T "Artist=%artist%" -T "Title=%title%" -T "Album=%albumtitle%" -T "Date=%year%" -T "Tracknumber=%tracknr%" -T "Comment=%comment%" %source%
TOC of the extracted CD
     Track |   Start  |  Length  | Start sector | End sector
    ---------------------------------------------------------
        1  |  0:00.00 |  3:04.61 |         0    |    13860
        2  |  3:04.61 |  3:01.53 |     13861    |    27488
        3  |  6:06.39 |  3:28.60 |     27489    |    43148
        4  |  9:35.24 |  3:14.46 |     43149    |    57744
        5  | 12:49.70 |  4:24.50 |     57745    |    77594
        6  | 17:14.45 |  2:46.08 |     77595    |    90052
        7  | 20:00.53 |  2:26.03 |     90053    |   101005
        8  | 22:26.56 |  5:55.03 |    101006    |   127633
        9  | 28:21.59 |  2:13.50 |    127634    |   137658
       10  | 30:35.34 |  3:59.65 |    137659    |   155648
       11  | 34:35.24 |  2:58.60 |    155649    |   169058
       12  | 37:34.09 |  3:31.48 |    169059    |   184931
       13  | 41:05.57 |  3:17.13 |    184932    |   199719
       14  | 44:22.70 |  3:24.73 |    199720    |   215092
Range status and errors
Selected range
     Filename H:\dafnaplus\Nazareth\1972 Exercises\Nazareth - Exercises (AIRAC-1201).wav
     Peak level 96.6 %
     Extraction speed 7.8 X
     Range quality 100.0 %
     Test CRC DD81E10E
     Copy CRC DD81E10E
     Copy OK
No errors occurred
AccurateRip summary
Track  1  accurately ripped (confidence 2)  [0784DA1E]  (AR v2)
Track  2  accurately ripped (confidence 2)  [AF690BA9]  (AR v2)
Track  3  accurately ripped (confidence 2)  [0209F7EC]  (AR v2)
Track  4  accurately ripped (confidence 2)  [97E849C1]  (AR v2)
Track  5  accurately ripped (confidence 2)  [B12655E0]  (AR v2)
Track  6  accurately ripped (confidence 2)  [0C58297C]  (AR v2)
Track  7  accurately ripped (confidence 2)  [983A59EE]  (AR v2)
Track  8  accurately ripped (confidence 2)  [93E24035]  (AR v2)
Track  9  accurately ripped (confidence 2)  [D3AE8CE8]  (AR v2)
Track 10  accurately ripped (confidence 2)  [5E5BFBD0]  (AR v2)
Track 11  accurately ripped (confidence 2)  [A419C5FB]  (AR v2)
Track 12  accurately ripped (confidence 2)  [C78411CA]  (AR v2)
Track 13  accurately ripped (confidence 2)  [839C8945]  (AR v2)
Track 14  accurately ripped (confidence 2)  [20FDAC73]  (AR v2)
All tracks accurately ripped
End of status report
---- CUETools DB Plugin V2.1.6
[CTDB TOCID: TPKkUSHjU8AXQ5U.HCHUXhioAwU-] found
Submit result: already submitted
Track | CTDB Status
  1   | (3/3) Accurately ripped
  2   | (3/3) Accurately ripped
  3   | (3/3) Accurately ripped
  4   | (3/3) Accurately ripped
  5   | (3/3) Accurately ripped
  6   | (3/3) Accurately ripped
  7   | (3/3) Accurately ripped
  8   | (3/3) Accurately ripped
  9   | (3/3) Accurately ripped
10   | (3/3) Accurately ripped
11   | (3/3) Accurately ripped
12   | (3/3) Accurately ripped
13   | (3/3) Accurately ripped
14   | (3/3) Accurately ripped

содержание индексной карты *cue

REM GENRE Rock
REM DATE 2006
REM DISCID C50B330E
REM COMMENT "ExactAudioCopy v1.0b6"
PERFORMER "Nazareth"
TITLE "Exercises (AIRAC-1201)"
FILE "Nazareth - Exercises (AIRAC-1201).flac" WAVE
  TRACK 01 AUDIO
    TITLE "I Will Not Be Led"
    PERFORMER "Nazareth"
    ISRC GBCBR0402619
    INDEX 01 00:00:00
  TRACK 02 AUDIO
    TITLE "Cat's Eye, Apple Pie"
    PERFORMER "Nazareth"
    ISRC GBCBR0402620
    INDEX 01 03:04:61
  TRACK 03 AUDIO
    TITLE "In My Time"
    PERFORMER "Nazareth"
    ISRC GBCBR0402621
    INDEX 01 06:06:39
  TRACK 04 AUDIO
    TITLE "Woke Up This Morning"
    PERFORMER "Nazareth"
    ISRC GBCBR0402622
    INDEX 01 09:35:24
  TRACK 05 AUDIO
    TITLE "Called Her Name"
    PERFORMER "Nazareth"
    ISRC GBCBR0402623
    INDEX 01 12:49:70
  TRACK 06 AUDIO
    TITLE "Fool About You"
    PERFORMER "Nazareth"
    ISRC GBCBR0402624
    INDEX 01 17:14:45
  TRACK 07 AUDIO
    TITLE "Love Now You're Gone"
    PERFORMER "Nazareth"
    ISRC GBCBR0402625
    INDEX 01 20:00:53
  TRACK 08 AUDIO
    TITLE "Madelaine"
    PERFORMER "Nazareth"
    ISRC GBCBR0402626
    INDEX 01 22:26:56
  TRACK 09 AUDIO
    TITLE "Sad Song"
    PERFORMER "Nazareth"
    ISRC GBCBR0402627
    INDEX 01 28:21:59
  TRACK 10 AUDIO
    TITLE "1692 (Glencoe Massacre)"
    PERFORMER "Nazareth"
    ISRC GBCBR0402628
    INDEX 01 30:35:34
  TRACK 11 AUDIO
    TITLE "If You See My Baby"
    PERFORMER "Nazareth"
    ISRC GBCBR0402629
    INDEX 00 34:30:00
    INDEX 01 34:35:24
  TRACK 12 AUDIO
    TITLE "Woke Up This Morning (Alternate Edit Version)"
    PERFORMER "Nazareth"
    ISRC GBCBR0402630
    INDEX 01 37:34:09
  TRACK 13 AUDIO
    TITLE "Love Now You're Gone (Alternate Edit Version)"
    PERFORMER "Nazareth"
    ISRC GBCBR0402631
    INDEX 01 41:05:57
  TRACK 14 AUDIO
    TITLE "1692 (Glencoe Massacre) (Alternate Edit Version)"
    PERFORMER "Nazareth"
    ISRC GBCBR0402632
    INDEX 01 44:22:70

1973 - Loud 'N' Proud

Год выпуска: 2006
Лейбл издания: AIRAC (AMR ARHIVE)
Номер по каталогу: R - 0640628
Продолжительность: 00:53:40
Страна производитель диска: JAPAN


01.Go Down Fighting (03:06)
02.Not Faking It (04:02)
03.Turn On Your Receiver (03:20)
04.Teenage Nervous Breakdown (03:44)
05.Freewheeler (05:32)
06.This Flight Tonight (03:25)
07.Child In The Sun (04:52)
08.The Ballad Of Hollis Brown (09:20)
09.This Flight Tonight (US Version) (03:26)
10.Go Down Fighting (US Version) (03:07)
11.The Ballad Of Hollis Brown (Edited Version) (05:11)
12.Freewheeler (Edited Version) (04:40)

лог создания рипа

Exact Audio Copy V1.0 beta 6 from 9. April 2015
EAC extraction logfile from 22. April 2015, 18:47
Nazareth  / Loud 'N' Proud (AIRAC-1203)
Used drive  : PLEXTOR DVDR   PX-891SA   Adapter: 1  ID: 0
Read mode               : Secure
Utilize accurate stream : Yes
Defeat audio cache      : Yes
Make use of C2 pointers : No
Read offset correction                      : 6
Overread into Lead-In and Lead-Out          : No
Fill up missing offset samples with silence : Yes
Delete leading and trailing silent blocks   : No
Null samples used in CRC calculations       : Yes
Used interface                              : Native Win32 interface for Win NT & 2000
Used output format              : User Defined Encoder
Selected bitrate                : 1024 kBit/s
Quality                         : High
Add ID3 tag                     : No
Command line compressor         : C:\Program Files\Exact Audio Copy\Flac\flac.exe
Additional command line options :  -V -8 -T "Genre=%genre%" -T "Artist=%artist%" -T "Title=%title%" -T "Album=%albumtitle%" -T "Date=%year%" -T "Tracknumber=%tracknr%" -T "Comment=%comment%" %source%
TOC of the extracted CD
     Track |   Start  |  Length  | Start sector | End sector
    ---------------------------------------------------------
        1  |  0:00.00 |  3:05.37 |         0    |    13911
        2  |  3:05.37 |  4:01.07 |     13912    |    31993
        3  |  7:06.44 |  3:19.38 |     31994    |    46956
        4  | 10:26.07 |  3:43.33 |     46957    |    63714
        5  | 14:09.40 |  5:31.45 |     63715    |    88584
        6  | 19:41.10 |  3:24.02 |     88585    |   103886
        7  | 23:05.12 |  4:51.57 |    103887    |   125768
        8  | 27:56.69 |  9:19.46 |    125769    |   167739
        9  | 37:16.40 |  3:25.41 |    167740    |   183155
       10  | 40:42.06 |  3:06.60 |    183156    |   197165
       11  | 43:48.66 |  5:10.46 |    197166    |   220461
       12  | 48:59.37 |  4:39.66 |    220462    |   241452
Range status and errors
Selected range
     Filename H:\dafnaplus\Nazareth\1973 Loud 'N' Proud\Nazareth  - Loud 'N' Proud (AIRAC-1203).wav
     Peak level 96.6 %
     Extraction speed 8.1 X
     Range quality 100.0 %
     Test CRC 08EE8971
     Copy CRC 08EE8971
     Copy OK
No errors occurred
AccurateRip summary
Track  1  accurately ripped (confidence 3)  [5969C670]  (AR v1)
Track  2  accurately ripped (confidence 3)  [9813D3E9]  (AR v1)
Track  3  accurately ripped (confidence 3)  [1C0719F5]  (AR v1)
Track  4  accurately ripped (confidence 3)  [0F58BE70]  (AR v1)
Track  5  accurately ripped (confidence 3)  [97C985D3]  (AR v1)
Track  6  accurately ripped (confidence 3)  [1E82D217]  (AR v1)
Track  7  accurately ripped (confidence 3)  [C5021DD7]  (AR v1)
Track  8  accurately ripped (confidence 3)  [28A7C91A]  (AR v1)
Track  9  accurately ripped (confidence 3)  [D6680CA5]  (AR v1)
Track 10  accurately ripped (confidence 3)  [89DCCFD3]  (AR v1)
Track 11  accurately ripped (confidence 3)  [65AB6C3D]  (AR v1)
Track 12  accurately ripped (confidence 3)  [77AE4F9C]  (AR v1)
All tracks accurately ripped
End of status report
---- CUETools DB Plugin V2.1.6
[CTDB TOCID: 1sckl3.jUfpACLfDx6.31TQeebg-] found
Submit result: already submitted
Track | CTDB Status
  1   | (3/3) Accurately ripped
  2   | (3/3) Accurately ripped
  3   | (3/3) Accurately ripped
  4   | (3/3) Accurately ripped
  5   | (3/3) Accurately ripped
  6   | (3/3) Accurately ripped
  7   | (3/3) Accurately ripped
  8   | (3/3) Accurately ripped
  9   | (3/3) Accurately ripped
10   | (3/3) Accurately ripped
11   | (3/3) Accurately ripped
12   | (3/3) Accurately ripped

содержание индексной карты *cue

REM GENRE Rock
REM DATE 2006
REM DISCID AC0C930C
REM COMMENT "ExactAudioCopy v1.0b6"
PERFORMER "Nazareth "
TITLE "Loud 'N' Proud (AIRAC-1203)"
FILE "Nazareth  - Loud 'N' Proud (AIRAC-1203).flac" WAVE
  TRACK 01 AUDIO
    TITLE "Go Down Fighting"
    PERFORMER "Nazareth "
    ISRC GBCBR0402000
    INDEX 01 00:00:00
  TRACK 02 AUDIO
    TITLE "Not Faking It"
    PERFORMER "Nazareth "
    ISRC GBCBR0402001
    INDEX 01 03:05:37
  TRACK 03 AUDIO
    TITLE "Turn On Your Receiver"
    PERFORMER "Nazareth "
    ISRC GBCBR0402002
    INDEX 01 07:06:44
  TRACK 04 AUDIO
    TITLE "Teenage Nervous Breakdown"
    PERFORMER "Nazareth "
    ISRC GBCBR0402003
    INDEX 01 10:26:07
  TRACK 05 AUDIO
    TITLE "Freewheeler"
    PERFORMER "Nazareth "
    ISRC GBCBR0401443
    INDEX 01 14:09:40
  TRACK 06 AUDIO
    TITLE "This Flight Tonight"
    PERFORMER "Nazareth "
    ISRC GBCBR0402004
    INDEX 01 19:41:10
  TRACK 07 AUDIO
    TITLE "Child In The Sun"
    PERFORMER "Nazareth "
    ISRC GBCBR0402005
    INDEX 01 23:05:12
  TRACK 08 AUDIO
    TITLE "The Ballad Of Hollis Brown"
    PERFORMER "Nazareth "
    ISRC GBCBR0401444
    INDEX 01 27:56:69
  TRACK 09 AUDIO
    TITLE "This Flight Tonight (US Version)"
    PERFORMER "Nazareth "
    ISRC GBCBR0402006
    INDEX 00 37:11:35
    INDEX 01 37:16:40
  TRACK 10 AUDIO
    TITLE "Go Down Fighting (US Version)"
    PERFORMER "Nazareth "
    ISRC GBCBR0402007
    INDEX 01 40:42:06
  TRACK 11 AUDIO
    TITLE "The Ballad Of Hollis Brown (Edited Version)"
    PERFORMER "Nazareth "
    ISRC GBCBR0402008
    INDEX 01 43:48:66
  TRACK 12 AUDIO
    TITLE "Freewheeler (Edited Version)"
    PERFORMER "Nazareth "
    ISRC GBCBR0402009
    INDEX 01 48:59:37

1973 - Razamanaz

Год выпуска: 2006
Лейбл издания: AIRAC (AMR ARHIVE)
Номер по каталогу: R - 0640627
Продолжительность: 00:46:22
Страна производитель диска: JAPAN


01.Razamanaz (03:52)
02.Alcatraz (04:24)
03.Vigilante Man (05:22)
04.Woke Up This Morning (03:54)
05.Night Woman (03:30)
06.Bad, Bad Boy (03:58)
07.Sold My Soul (04:50)
08.Too Bad, Too Sad (03:05)
09.Broken Down Angel (03:48)
10.Hard Living (Bonus Track) (03:05)
11.Spinning Top (Bonus Track) (03:08)
12.Razamanaz (Bonus Track, Alternate Edit Version) (03:32)

лог создания рипа

Exact Audio Copy V1.0 beta 6 from 9. April 2015
EAC extraction logfile from 22. April 2015, 19:30
Nazareth / Razamanaz (AIRAC-1202)
Used drive  : PLEXTOR DVDR   PX-891SA   Adapter: 1  ID: 0
Read mode               : Secure
Utilize accurate stream : Yes
Defeat audio cache      : Yes
Make use of C2 pointers : No
Read offset correction                      : 6
Overread into Lead-In and Lead-Out          : No
Fill up missing offset samples with silence : Yes
Delete leading and trailing silent blocks   : No
Null samples used in CRC calculations       : Yes
Used interface                              : Native Win32 interface for Win NT & 2000
Used output format              : User Defined Encoder
Selected bitrate                : 1024 kBit/s
Quality                         : High
Add ID3 tag                     : No
Command line compressor         : C:\Program Files\Exact Audio Copy\Flac\flac.exe
Additional command line options :  -V -8 -T "Genre=%genre%" -T "Artist=%artist%" -T "Title=%title%" -T "Album=%albumtitle%" -T "Date=%year%" -T "Tracknumber=%tracknr%" -T "Comment=%comment%" %source%
TOC of the extracted CD
     Track |   Start  |  Length  | Start sector | End sector
    ---------------------------------------------------------
        1  |  0:00.00 |  3:51.34 |         0    |    17358
        2  |  3:51.34 |  4:23.45 |     17359    |    37128
        3  |  8:15.04 |  5:21.30 |     37129    |    61233
        4  | 13:36.34 |  3:53.14 |     61234    |    78722
        5  | 17:29.48 |  3:29.25 |     78723    |    94422
        6  | 20:58.73 |  3:57.29 |     94423    |   112226
        7  | 24:56.27 |  4:49.32 |    112227    |   133933
        8  | 29:45.59 |  3:04.70 |    133934    |   147803
        9  | 32:50.54 |  3:47.42 |    147804    |   164870
       10  | 36:38.21 |  3:04.29 |    164871    |   178699
       11  | 39:42.50 |  3:07.24 |    178700    |   192748
       12  | 42:49.74 |  3:31.25 |    192749    |   208598
Range status and errors
Selected range
     Filename H:\dafnaplus\Nazareth\1973 Razamanaz\Nazareth - Razamanaz (AIRAC-1202).wav
     Peak level 96.6 %
     Extraction speed 7.8 X
     Range quality 100.0 %
     Test CRC 59C5937B
     Copy CRC 59C5937B
     Copy OK
No errors occurred
AccurateRip summary
Track  1  accurately ripped (confidence 3)  [25828C51]  (AR v1)
Track  2  accurately ripped (confidence 3)  [119ED75C]  (AR v1)
Track  3  accurately ripped (confidence 3)  [F7B9D5E1]  (AR v1)
Track  4  accurately ripped (confidence 3)  [489EA9BA]  (AR v1)
Track  5  accurately ripped (confidence 3)  [353C885B]  (AR v1)
Track  6  accurately ripped (confidence 3)  [F8EF1074]  (AR v1)
Track  7  accurately ripped (confidence 3)  [2BF87CA4]  (AR v1)
Track  8  accurately ripped (confidence 3)  [AC6852D6]  (AR v1)
Track  9  accurately ripped (confidence 3)  [07D32862]  (AR v1)
Track 10  accurately ripped (confidence 3)  [8488EC1B]  (AR v1)
Track 11  accurately ripped (confidence 3)  [DA898693]  (AR v1)
Track 12  accurately ripped (confidence 3)  [EA8AA13D]  (AR v1)
All tracks accurately ripped
End of status report
---- CUETools DB Plugin V2.1.6
[CTDB TOCID: UwumP0wYCTkP1MIlK0M4q2iVqi0-] found
Submit result: already submitted
Track | CTDB Status
  1   | (1/1) Accurately ripped
  2   | (1/1) Accurately ripped
  3   | (1/1) Accurately ripped
  4   | (1/1) Accurately ripped
  5   | (1/1) Accurately ripped
  6   | (1/1) Accurately ripped
  7   | (1/1) Accurately ripped
  8   | (1/1) Accurately ripped
  9   | (1/1) Accurately ripped
10   | (1/1) Accurately ripped
11   | (1/1) Accurately ripped
12   | (1/1) Accurately ripped

содержание индексной карты *cue

REM GENRE Rock
REM DATE 2006
REM DISCID A30ADD0C
REM COMMENT "ExactAudioCopy v1.0b6"
CATALOG 0000000000000
PERFORMER "Nazareth"
TITLE "Razamanaz (AIRAC-1202)"
FILE "Nazareth - Razamanaz (AIRAC-1202).flac" WAVE
  TRACK 01 AUDIO
    TITLE "Razamanaz"
    PERFORMER "Nazareth"
    ISRC GBCBR0402384
    INDEX 01 00:00:00
  TRACK 02 AUDIO
    TITLE "Alcatraz"
    PERFORMER "Nazareth"
    ISRC GBCBR0402403
    INDEX 01 03:51:34
  TRACK 03 AUDIO
    TITLE "Vigilante Man"
    PERFORMER "Nazareth"
    ISRC GBCBR0402404
    INDEX 01 08:15:04
  TRACK 04 AUDIO
    TITLE "Woke Up This Morning"
    PERFORMER "Nazareth"
    ISRC GBCBR0402405
    INDEX 01 13:36:34
  TRACK 05 AUDIO
    TITLE "Night Woman"
    PERFORMER "Nazareth"
    ISRC GBCBR0402406
    INDEX 01 17:29:48
  TRACK 06 AUDIO
    TITLE "Bad, Bad Boy"
    PERFORMER "Nazareth"
    ISRC GBCBR0402407
    INDEX 01 20:58:73
  TRACK 07 AUDIO
    TITLE "Sold My Soul"
    PERFORMER "Nazareth"
    ISRC GBCBR0402408
    INDEX 01 24:56:27
  TRACK 08 AUDIO
    TITLE "Too Bad, Too Sad"
    PERFORMER "Nazareth"
    ISRC GBCBR0402409
    INDEX 01 29:45:59
  TRACK 09 AUDIO
    TITLE "Broken Down Angel"
    PERFORMER "Nazareth"
    ISRC GBCBR0402410
    INDEX 00 32:41:50
    INDEX 01 32:50:54
  TRACK 10 AUDIO
    TITLE "Hard Living (Bonus Track)"
    PERFORMER "Nazareth"
    ISRC GBCBR0402411
    INDEX 01 36:38:21
  TRACK 11 AUDIO
    TITLE "Spinning Top (Bonus Track)"
    PERFORMER "Nazareth"
    ISRC GBCBR0402412
    INDEX 01 39:42:50
  TRACK 12 AUDIO
    TITLE "Razamanaz (Bonus Track, Alternate Edit Version)"
    PERFORMER "Nazareth"
    ISRC GBCBR0402413
    INDEX 01 42:49:74

1974 - Rampant

Год выпуска: 2006
Лейбл издания: AIRAC (AMR ARHIVE)
Номер по каталогу: R - 0640629
Продолжительность: 00:54:25
Страна производитель диска: JAPAN


01.Silver Dollar Forger (Parts 1 & 2) (05:37)
02.Glad When You're Gone (04:18)
03.Loved And Lost (05:13)
04.Shanghai'd In Shanghai (03:44)
05.Jet Lag (06:44)
06.Light My Way (04:10)
07.Sunshine (04:16)
08.Shapes Of Thing (05:33)
09.Space Safari (00:56)
10.Shanghai'd In Shanghai (US Version) (03:45)
11.Shapes Of Thing (Single Edit Version) (03:23)
12.Sunshine (Edit Version) (03:01)
13.Silver Dollar Forger (Edit Version) (03:52)

лог создания рипа

Exact Audio Copy V1.0 beta 6 from 9. April 2015
EAC extraction logfile from 22. April 2015, 19:52
Nazareth  / Rampant (AIRAC-1204)
Used drive  : PLEXTOR DVDR   PX-891SA   Adapter: 1  ID: 0
Read mode               : Secure
Utilize accurate stream : Yes
Defeat audio cache      : Yes
Make use of C2 pointers : No
Read offset correction                      : 6
Overread into Lead-In and Lead-Out          : No
Fill up missing offset samples with silence : Yes
Delete leading and trailing silent blocks   : No
Null samples used in CRC calculations       : Yes
Used interface                              : Native Win32 interface for Win NT & 2000
Used output format              : User Defined Encoder
Selected bitrate                : 1024 kBit/s
Quality                         : High
Add ID3 tag                     : No
Command line compressor         : C:\Program Files\Exact Audio Copy\Flac\flac.exe
Additional command line options :  -V -8 -T "Genre=%genre%" -T "Artist=%artist%" -T "Title=%title%" -T "Album=%albumtitle%" -T "Date=%year%" -T "Tracknumber=%tracknr%" -T "Comment=%comment%" %source%
TOC of the extracted CD
     Track |   Start  |  Length  | Start sector | End sector
    ---------------------------------------------------------
        1  |  0:00.00 |  5:36.04 |         0    |    25203
        2  |  5:36.04 |  4:17.12 |     25204    |    44490
        3  |  9:53.16 |  5:12.37 |     44491    |    67927
        4  | 15:05.53 |  3:43.19 |     67928    |    84671
        5  | 18:48.72 |  6:43.31 |     84672    |   114927
        6  | 25:32.28 |  4:09.13 |    114928    |   133615
        7  | 29:41.41 |  4:15.48 |    133616    |   152788
        8  | 33:57.14 |  5:32.12 |    152789    |   177700
        9  | 39:29.26 |  0:55.40 |    177701    |   181865
       10  | 40:24.66 |  3:44.66 |    181866    |   198731
       11  | 44:09.57 |  3:22.25 |    198732    |   213906
       12  | 47:32.07 |  3:00.57 |    213907    |   227463
       13  | 50:32.64 |  3:51.51 |    227464    |   244839
Range status and errors
Selected range
     Filename H:\dafnaplus\Nazareth\1974 Rampant\Nazareth  - Rampant (AIRAC-1204).wav
     Peak level 96.6 %
     Extraction speed 8.1 X
     Range quality 99.9 %
     Test CRC 2EFDCAC8
     Copy CRC 2EFDCAC8
     Copy OK
No errors occurred
AccurateRip summary
Track  1  accurately ripped (confidence 3)  [5406F5E6]  (AR v1)
Track  2  accurately ripped (confidence 3)  [29B137BB]  (AR v1)
Track  3  accurately ripped (confidence 3)  [D8B5C7AF]  (AR v1)
Track  4  accurately ripped (confidence 3)  [27B52102]  (AR v1)
Track  5  accurately ripped (confidence 3)  [4A458ADF]  (AR v1)
Track  6  accurately ripped (confidence 3)  [491D33EF]  (AR v1)
Track  7  accurately ripped (confidence 3)  [D3435B50]  (AR v1)
Track  8  accurately ripped (confidence 3)  [07B14474]  (AR v1)
Track  9  accurately ripped (confidence 3)  [7668FDFB]  (AR v1)
Track 10  accurately ripped (confidence 3)  [E0BEB9BE]  (AR v1)
Track 11  accurately ripped (confidence 3)  [8FC43B9A]  (AR v1)
Track 12  accurately ripped (confidence 3)  [778304A8]  (AR v1)
Track 13  accurately ripped (confidence 3)  [68F82229]  (AR v1)
All tracks accurately ripped
End of status report
---- CUETools DB Plugin V2.1.6
[CTDB TOCID: bWUU2HA9ELt8XMCCQKBYLaFqwFI-] found
Submit result: bWUU2HA9ELt8XMCCQKBYLaFqwFI- has been confirmed
Track | CTDB Status
  1   | (3/3) Accurately ripped
  2   | (3/3) Accurately ripped
  3   | (3/3) Accurately ripped
  4   | (3/3) Accurately ripped
  5   | (3/3) Accurately ripped
  6   | (3/3) Accurately ripped
  7   | (3/3) Accurately ripped
  8   | (3/3) Accurately ripped
  9   | (3/3) Accurately ripped
10   | (3/3) Accurately ripped
11   | (3/3) Accurately ripped
12   | (3/3) Accurately ripped
13   | (3/3) Accurately ripped

содержание индексной карты *cue

REM GENRE Rock
REM DATE 2006
REM DISCID AC0CC00D
REM COMMENT "ExactAudioCopy v1.0b6"
PERFORMER "Nazareth "
TITLE "Rampant (AIRAC-1204)"
FILE "Nazareth  - Rampant (AIRAC-1204).flac" WAVE
  TRACK 01 AUDIO
    TITLE "Silver Dollar Forger (Parts 1 & 2)"
    PERFORMER "Nazareth "
    ISRC GBCBR0402414
    INDEX 01 00:00:00
  TRACK 02 AUDIO
    TITLE "Glad When You're Gone"
    PERFORMER "Nazareth "
    ISRC GBCBR0402415
    INDEX 01 05:36:04
  TRACK 03 AUDIO
    TITLE "Loved And Lost"
    PERFORMER "Nazareth "
    ISRC GBCBR0402416
    INDEX 01 09:53:16
  TRACK 04 AUDIO
    TITLE "Shanghai'd In Shanghai"
    PERFORMER "Nazareth "
    ISRC GBCBR0402417
    INDEX 01 15:05:53
  TRACK 05 AUDIO
    TITLE "Jet Lag"
    PERFORMER "Nazareth "
    ISRC GBCBR0402418
    INDEX 01 18:48:72
  TRACK 06 AUDIO
    TITLE "Light My Way"
    PERFORMER "Nazareth "
    ISRC GBCBR0402419
    INDEX 01 25:32:28
  TRACK 07 AUDIO
    TITLE "Sunshine"
    PERFORMER "Nazareth "
    ISRC GBCBR0402420
    INDEX 01 29:41:41
  TRACK 08 AUDIO
    TITLE "Shapes Of Thing"
    PERFORMER "Nazareth "
    ISRC GBCBR0402421
    INDEX 01 33:57:14
  TRACK 09 AUDIO
    TITLE "Space Safari"
    PERFORMER "Nazareth "
    ISRC GBCBR0402421
    INDEX 01 39:29:26
  TRACK 10 AUDIO
    TITLE "Shanghai'd In Shanghai (US Version)"
    PERFORMER "Nazareth "
    ISRC GBCBR0402422
    INDEX 00 40:19:65
    INDEX 01 40:24:66
  TRACK 11 AUDIO
    TITLE "Shapes Of Thing (Single Edit Version)"
    PERFORMER "Nazareth "
    ISRC GBCBR0402423
    INDEX 01 44:09:57
  TRACK 12 AUDIO
    TITLE "Sunshine (Edit Version)"
    PERFORMER "Nazareth "
    ISRC GBCBR0402424
    INDEX 01 47:32:07
  TRACK 13 AUDIO
    TITLE "Silver Dollar Forger (Edit Version)"
    PERFORMER "Nazareth "
    ISRC GBCBR0402425
    INDEX 01 50:32:64

1976 - Close Enough For Rock'n'Roll | 01:04:40

Год выпуска: 2006
Лейбл издания: AIRAC (AMR ARHIVE)
Номер по каталогу: R - 0640631
Продолжительность: 01:04:40
Страна производитель диска: JAPAN


01.Telegram Part 1: On Your Way (03:07)
02.Telegram Part 2: So You Want To Be A Rock 'N' Roll Star (00:26)
03.Telegram Part 3: Soun Check (02:23)
04.Telegram Part 4: Here We Are Again (01:57)
05.Vicki (02:25)
06.Homesick Again (04:31)
07.Vancouver Shakedown (04:04)
08.Born Under The Wrong Sign (03:58)
09.Loretta (03:20)
10.Carry Out Feelings (03:20)
11.Lift The Lid (03:54)
12.You're The Violin (04:52)
13.My White Bicycle (Bonus Track) (05:21)
14.You're The Violin (Bonus Track, Edit Single Version) (03:37)
15.Loretta (Bonus Track, Alternate Version) (02:40)
16.Carry Out Feelings (Bonus Track, U.S. Version) (03:20)
17.Lift The Lid (Bonus Track, Alternate Single Version) (03:32)
18.My White Bicycle (Bonus Track, Original Version) (03:28)
19.Telegram (Bonus Track, Edit Version) (04:34)

лог создания рипа

Exact Audio Copy V1.0 beta 6 from 9. April 2015
EAC extraction logfile from 23. April 2015, 6:19
Nazareth / Close Enough For Rock'n'Roll (AIRAC-1206)
Used drive  : PLEXTOR DVDR   PX-891SA   Adapter: 1  ID: 0
Read mode               : Secure
Utilize accurate stream : Yes
Defeat audio cache      : Yes
Make use of C2 pointers : No
Read offset correction                      : 6
Overread into Lead-In and Lead-Out          : No
Fill up missing offset samples with silence : Yes
Delete leading and trailing silent blocks   : No
Null samples used in CRC calculations       : Yes
Used interface                              : Native Win32 interface for Win NT & 2000
Used output format              : User Defined Encoder
Selected bitrate                : 1024 kBit/s
Quality                         : High
Add ID3 tag                     : No
Command line compressor         : C:\Program Files\Exact Audio Copy\Flac\flac.exe
Additional command line options :  -V -8 -T "Genre=%genre%" -T "Artist=%artist%" -T "Title=%title%" -T "Album=%albumtitle%" -T "Date=%year%" -T "Tracknumber=%tracknr%" -T "Comment=%comment%" %source%
TOC of the extracted CD
     Track |   Start  |  Length  | Start sector | End sector
    ---------------------------------------------------------
        1  |  0:00.00 |  3:06.23 |         0    |    13972
        2  |  3:06.23 |  0:25.33 |     13973    |    15880
        3  |  3:31.56 |  2:22.38 |     15881    |    26568
        4  |  5:54.19 |  1:56.30 |     26569    |    35298
        5  |  7:50.49 |  2:24.49 |     35299    |    46147
        6  | 10:15.23 |  4:30.57 |     46148    |    66454
        7  | 14:46.05 |  4:03.26 |     66455    |    84705
        8  | 18:49.31 |  3:57.50 |     84706    |   102530
        9  | 22:47.06 |  3:19.51 |    102531    |   117506
       10  | 26:06.57 |  3:19.10 |    117507    |   132441
       11  | 29:25.67 |  3:53.50 |    132442    |   149966
       12  | 33:19.42 |  4:51.57 |    149967    |   171848
       13  | 38:11.24 |  5:20.26 |    171849    |   195874
       14  | 43:31.50 |  3:36.41 |    195875    |   212115
       15  | 47:08.16 |  2:39.01 |    212116    |   224041
       16  | 49:47.17 |  3:19.45 |    224042    |   239011
       17  | 53:06.62 |  3:31.08 |    239012    |   254844
       18  | 56:37.70 |  3:27.74 |    254845    |   270443
       19  | 60:05.69 |  4:33.36 |    270444    |   290954
Range status and errors
Selected range
     Filename H:\dafnaplus\Nazareth\1976 Close Enough For Rock'n'Roll\Nazareth - Close Enough For Rock'n'Roll (AIRAC-1206).wav
     Peak level 96.6 %
     Extraction speed 9.0 X
     Range quality 99.9 %
     Test CRC E84051EE
     Copy CRC E84051EE
     Copy OK
No errors occurred
AccurateRip summary
Track  1  accurately ripped (confidence 2)  [5C0505D0]  (AR v2)
Track  2  accurately ripped (confidence 2)  [68038FBC]  (AR v2)
Track  3  accurately ripped (confidence 2)  [3049BE19]  (AR v2)
Track  4  accurately ripped (confidence 2)  [1E67D87D]  (AR v2)
Track  5  accurately ripped (confidence 2)  [4901E735]  (AR v2)
Track  6  accurately ripped (confidence 2)  [F05EACE8]  (AR v2)
Track  7  accurately ripped (confidence 3)  [EEB22358]  (AR v1)
Track  8  accurately ripped (confidence 3)  [7FC58993]  (AR v1)
Track  9  accurately ripped (confidence 3)  [61EA1F4C]  (AR v1)
Track 10  accurately ripped (confidence 3)  [6E3274BC]  (AR v1)
Track 11  accurately ripped (confidence 3)  [C77CA34E]  (AR v1)
Track 12  accurately ripped (confidence 3)  [D1B52731]  (AR v1)
Track 13  accurately ripped (confidence 3)  [81FE5B63]  (AR v1)
Track 14  accurately ripped (confidence 2)  [45C68727]  (AR v2)
Track 15  accurately ripped (confidence 3)  [524F1514]  (AR v1)
Track 16  accurately ripped (confidence 3)  [D3B47D68]  (AR v1)
Track 17  accurately ripped (confidence 3)  [6D7E2181]  (AR v1)
Track 18  accurately ripped (confidence 3)  [79A0CDCD]  (AR v1)
Track 19  accurately ripped (confidence 2)  [E5A638D7]  (AR v1)
All tracks accurately ripped
End of status report
---- CUETools DB Plugin V2.1.6
[CTDB TOCID: PyaQVHRTpyvgbRh7fSL7YspiK1s-] disk not present in database
Submit result: PyaQVHRTpyvgbRh7fSL7YspiK1s- has been uploaded

содержание индексной карты *cue

REM GENRE Rock
REM DATE 2006
REM DISCID 210F2713
REM COMMENT "ExactAudioCopy v1.0b6"
PERFORMER "Nazareth"
TITLE "Close Enough For Rock'n'Roll (AIRAC-1206)"
FILE "Nazareth - Close Enough For Rock'n'Roll (AIRAC-1206).flac" WAVE
  TRACK 01 AUDIO
    TITLE "Telegram Part 1: On Your Way"
    PERFORMER "Nazareth"
    ISRC GBCBR0402539
    INDEX 01 00:00:00
  TRACK 02 AUDIO
    TITLE "Telegram Part 2: So You Want To Be A Rock 'N' Roll Star"
    PERFORMER "Nazareth"
    ISRC GBCBR0402539
    INDEX 01 03:06:23
  TRACK 03 AUDIO
    TITLE "Telegram Part 3: Soun Check"
    PERFORMER "Nazareth"
    ISRC GBCBR0402539
    INDEX 01 03:31:56
  TRACK 04 AUDIO
    TITLE "Telegram Part 4: Here We Are Again"
    PERFORMER "Nazareth"
    ISRC GBCBR0402539
    INDEX 01 05:54:19
  TRACK 05 AUDIO
    TITLE "Vicki"
    PERFORMER "Nazareth"
    ISRC GBCBR0402540
    INDEX 01 07:50:49
  TRACK 06 AUDIO
    TITLE "Homesick Again"
    PERFORMER "Nazareth"
    ISRC GBCBR0402541
    INDEX 01 10:15:23
  TRACK 07 AUDIO
    TITLE "Vancouver Shakedown"
    PERFORMER "Nazareth"
    ISRC GBCBR0402542
    INDEX 01 14:46:05
  TRACK 08 AUDIO
    TITLE "Born Under The Wrong Sign"
    PERFORMER "Nazareth"
    ISRC GBCBR0402543
    INDEX 01 18:49:31
  TRACK 09 AUDIO
    TITLE "Loretta"
    PERFORMER "Nazareth"
    ISRC GBCBR0402544
    INDEX 01 22:47:06
  TRACK 10 AUDIO
    TITLE "Carry Out Feelings"
    PERFORMER "Nazareth"
    ISRC GBCBR0402545
    INDEX 01 26:06:57
  TRACK 11 AUDIO
    TITLE "Lift The Lid"
    PERFORMER "Nazareth"
    ISRC GBCBR0402546
    INDEX 01 29:25:67
  TRACK 12 AUDIO
    TITLE "You're The Violin"
    PERFORMER "Nazareth"
    ISRC GBCBR0402547
    INDEX 01 33:19:42
  TRACK 13 AUDIO
    TITLE "My White Bicycle (Bonus Track)"
    PERFORMER "Nazareth"
    ISRC GBCBR0402548
    INDEX 00 38:06:07
    INDEX 01 38:11:24
  TRACK 14 AUDIO
    TITLE "You're The Violin (Bonus Track, Edit Single Version)"
    PERFORMER "Nazareth"
    ISRC GBCBR0402549
    INDEX 01 43:31:50
  TRACK 15 AUDIO
    TITLE "Loretta (Bonus Track, Alternate Version)"
    PERFORMER "Nazareth"
    ISRC GBCBR0402550
    INDEX 01 47:08:16
  TRACK 16 AUDIO
    TITLE "Carry Out Feelings (Bonus Track, U.S. Version)"
    PERFORMER "Nazareth"
    ISRC GBCBR0402551
    INDEX 01 49:47:17
  TRACK 17 AUDIO
    TITLE "Lift The Lid (Bonus Track, Alternate Single  Version)"
    PERFORMER "Nazareth"
    ISRC GBCBR0402552
    INDEX 01 53:06:62
  TRACK 18 AUDIO
    TITLE "My White Bicycle (Bonus Track, Original Version)"
    PERFORMER "Nazareth"
    ISRC GBCBR0402553
    INDEX 01 56:37:70
  TRACK 19 AUDIO
    TITLE "Telegram (Bonus Track, Edit Version)"
    PERFORMER "Nazareth"
    ISRC GBCBR0402554
    INDEX 01 60:05:69

1976 - Play 'n' The Game

Год выпуска: 2006
Лейбл издания: AIRAC (AMR ARHIVE)
Номер по каталогу: R - 0640632
Продолжительность: 00:57:56
Страна производитель диска: JAPAN


01.Somebody To Roll (03:55)
02.Down Home Girl (05:04)
03.Flying (04:21)
04.Waiting For The Man (04:54)
05.Born To Love (03:59)
06.I Want To Do Everything For You (04:19)
07.I Don't Want To Go On Without You (03:47)
08.Wild Honey (03:04)
09.L.A. Girls (03:57)
10.Good Love (03:53)
11.I Don't Want To Go On Without You -Alternate Edit Version- (03:25)
12.Waiting For The Man (Alternate Edit Version) (06:14)
13.Somebody To Roll (Edit Version) (03:32)
14.Born To Love (Edit Version) (03:37)

лог создания рипа

Exact Audio Copy V1.0 beta 6 from 9. April 2015
EAC extraction logfile from 22. April 2015, 20:35
Nazareth  / Play 'n' The Game (AIRAC-1207)
Used drive  : PLEXTOR DVDR   PX-891SA   Adapter: 1  ID: 0
Read mode               : Secure
Utilize accurate stream : Yes
Defeat audio cache      : Yes
Make use of C2 pointers : No
Read offset correction                      : 6
Overread into Lead-In and Lead-Out          : No
Fill up missing offset samples with silence : Yes
Delete leading and trailing silent blocks   : No
Null samples used in CRC calculations       : Yes
Used interface                              : Native Win32 interface for Win NT & 2000
Used output format              : User Defined Encoder
Selected bitrate                : 1024 kBit/s
Quality                         : High
Add ID3 tag                     : No
Command line compressor         : C:\Program Files\Exact Audio Copy\Flac\flac.exe
Additional command line options :  -V -8 -T "Genre=%genre%" -T "Artist=%artist%" -T "Title=%title%" -T "Album=%albumtitle%" -T "Date=%year%" -T "Tracknumber=%tracknr%" -T "Comment=%comment%" %source%
TOC of the extracted CD
     Track |   Start  |  Length  | Start sector | End sector
    ---------------------------------------------------------
        1  |  0:00.00 |  3:54.56 |         0    |    17605
        2  |  3:54.56 |  5:03.19 |     17606    |    40349
        3  |  8:58.00 |  4:20.61 |     40350    |    59910
        4  | 13:18.61 |  4:53.45 |     59911    |    81930
        5  | 18:12.31 |  3:58.01 |     81931    |    99781
        6  | 22:10.32 |  4:18.65 |     99782    |   119196
        7  | 26:29.22 |  3:46.45 |    119197    |   136191
        8  | 30:15.67 |  3:03.18 |    136192    |   149934
        9  | 33:19.10 |  3:56.63 |    149935    |   167697
       10  | 37:15.73 |  3:52.33 |    167698    |   185130
       11  | 41:08.31 |  3:24.62 |    185131    |   200492
       12  | 44:33.18 |  6:13.40 |    200493    |   228507
       13  | 50:46.58 |  3:31.60 |    228508    |   244392
       14  | 54:18.43 |  3:36.33 |    244393    |   260625
Range status and errors
Selected range
     Filename H:\dafnaplus\Nazareth\1976 Play 'n' The Game\Nazareth  - Play 'n' The Game (AIRAC-1207).wav
     Peak level 96.6 %
     Extraction speed 8.2 X
     Range quality 99.9 %
     Test CRC C3E96187
     Copy CRC C3E96187
     Copy OK
No errors occurred
AccurateRip summary
Track  1  accurately ripped (confidence 2)  [DB5BA2D2]  (AR v1)
Track  2  accurately ripped (confidence 2)  [6FACBF08]  (AR v1)
Track  3  accurately ripped (confidence 2)  [352F5B02]  (AR v1)
Track  4  accurately ripped (confidence 2)  [2E2E1C25]  (AR v1)
Track  5  accurately ripped (confidence 2)  [58951C1F]  (AR v1)
Track  6  accurately ripped (confidence 2)  [3A0A10FC]  (AR v1)
Track  7  accurately ripped (confidence 2)  [FA6C5646]  (AR v1)
Track  8  accurately ripped (confidence 2)  [6792E02E]  (AR v1)
Track  9  accurately ripped (confidence 2)  [D1A86F00]  (AR v1)
Track 10  accurately ripped (confidence 2)  [B4A9DF21]  (AR v1)
Track 11  accurately ripped (confidence 2)  [A0E08FA1]  (AR v1)
Track 12  accurately ripped (confidence 2)  [E67BD60C]  (AR v1)
Track 13  accurately ripped (confidence 2)  [C08E85D0]  (AR v1)
Track 14  accurately ripped (confidence 2)  [9F20C010]  (AR v1)
All tracks accurately ripped
End of status report
---- CUETools DB Plugin V2.1.6
[CTDB TOCID: d8gn6fMGKmkPs_q81Nt4C_7XtR0-] found
Submit result: d8gn6fMGKmkPs_q81Nt4C_7XtR0- has been confirmed
Track | CTDB Status
  1   | (1/1) Accurately ripped
  2   | (1/1) Accurately ripped
  3   | (1/1) Accurately ripped
  4   | (1/1) Accurately ripped
  5   | (1/1) Accurately ripped
  6   | (1/1) Accurately ripped
  7   | (1/1) Accurately ripped
  8   | (1/1) Accurately ripped
  9   | (1/1) Accurately ripped
10   | (1/1) Accurately ripped
11   | (1/1) Accurately ripped
12   | (1/1) Accurately ripped
13   | (1/1) Accurately ripped
14   | (1/1) Accurately ripped

содержание индексной карты *cue

REM GENRE Rock
REM DATE 2006
REM DISCID A20D930E
REM COMMENT "ExactAudioCopy v1.0b6"
PERFORMER "Nazareth "
TITLE "Play 'n' The Game (AIRAC-1207)"
FILE "Nazareth  - Play 'n' The Game (AIRAC-1207).flac" WAVE
  TRACK 01 AUDIO
    TITLE "Somebody To Roll"
    PERFORMER "Nazareth "
    ISRC GBCBR0402555
    INDEX 01 00:00:00
  TRACK 02 AUDIO
    TITLE "Down Home Girl"
    PERFORMER "Nazareth "
    ISRC GBCBR0402556
    INDEX 01 03:54:56
  TRACK 03 AUDIO
    TITLE "Flying"
    PERFORMER "Nazareth "
    ISRC GBCBR0402557
    INDEX 01 08:58:00
  TRACK 04 AUDIO
    TITLE "Waiting For The Man"
    PERFORMER "Nazareth "
    ISRC GBCBR0402558
    INDEX 01 13:18:61
  TRACK 05 AUDIO
    TITLE "Born To Love"
    PERFORMER "Nazareth "
    ISRC GBCBR0402559
    INDEX 01 18:12:31
  TRACK 06 AUDIO
    TITLE "I Want To Do Everything For You"
    PERFORMER "Nazareth "
    ISRC GBCBR0402560
    INDEX 01 22:10:32
  TRACK 07 AUDIO
    TITLE "I Don't Want To Go On Without You"
    PERFORMER "Nazareth "
    ISRC GBCBR0402561
    INDEX 01 26:29:22
  TRACK 08 AUDIO
    TITLE "Wild Honey"
    PERFORMER "Nazareth "
    ISRC GBCBR0402562
    INDEX 01 30:15:67
  TRACK 09 AUDIO
    TITLE "L.A. Girls"
    PERFORMER "Nazareth "
    ISRC GBCBR0402563
    INDEX 01 33:19:10
  TRACK 10 AUDIO
    TITLE "Good Love"
    PERFORMER "Nazareth "
    ISRC GBCBR0402564
    INDEX 00 37:10:70
    INDEX 01 37:15:73
  TRACK 11 AUDIO
    TITLE "I Don't Want To Go On Without You -Alternate Edit Version-"
    PERFORMER "Nazareth "
    ISRC GBCBR0402565
    INDEX 01 41:08:31
  TRACK 12 AUDIO
    TITLE "Waiting For The Man (Alternate Edit Version)"
    PERFORMER "Nazareth "
    ISRC GBCBR0402566
    INDEX 01 44:33:18
  TRACK 13 AUDIO
    TITLE "Somebody To Roll (Edit Version)"
    PERFORMER "Nazareth "
    ISRC GBCBR0402567
    INDEX 01 50:46:58
  TRACK 14 AUDIO
    TITLE "Born To Love (Edit Version)"
    PERFORMER "Nazareth "
    ISRC GBCBR0402568
    INDEX 01 54:18:43

1977 - Expect No Mercy

Год выпуска: 2006
Лейбл издания: AIRAC (AMR ARHIVE)
Номер по каталогу: R - 0640633
Продолжительность: 00:57:16
Страна производитель диска: JAPAN


01.Expect No Mercy (03:27)
02.Gone Dead Train (03:45)
03.Shot Me Down (03:31)
04.Revenge Is Sweet (03:06)
05.Gimme What's Mine (03:46)
06.Kentucky Fried Blues (03:09)
07.New York Broken Toy (03:40)
08.Busted (03:42)
09.Place In Your Heart (03:02)
10.All The King's Horses (04:32)
11.Greens (02:52)
12.Desolation Road (03:01)
13.Gone Dead Train (Edit Version) (03:33)
14.Expect No Mercy (Alternate Version) (02:56)
15.Place In Your Heart (Alternate Version) (03:07)
16.Kentucky Fried Blues (Edit Version) (02:51)
17.Expect No Mercy (Live Version) (03:25)

лог создания рипа

Exact Audio Copy V1.0 beta 6 from 9. April 2015
EAC extraction logfile from 23. April 2015, 16:41
Nazareth / Expect No Mercy (AIRAC-1208)
Used drive  : PLEXTOR DVDR   PX-891SA   Adapter: 1  ID: 0
Read mode               : Secure
Utilize accurate stream : Yes
Defeat audio cache      : Yes
Make use of C2 pointers : No
Read offset correction                      : 6
Overread into Lead-In and Lead-Out          : No
Fill up missing offset samples with silence : Yes
Delete leading and trailing silent blocks   : No
Null samples used in CRC calculations       : Yes
Used interface                              : Native Win32 interface for Win NT & 2000
Used output format              : User Defined Encoder
Selected bitrate                : 1024 kBit/s
Quality                         : High
Add ID3 tag                     : No
Command line compressor         : C:\Program Files\Exact Audio Copy\Flac\flac.exe
Additional command line options :  -V -8 -T "Genre=%genre%" -T "Artist=%artist%" -T "Title=%title%" -T "Album=%albumtitle%" -T "Date=%year%" -T "Tracknumber=%tracknr%" -T "Comment=%comment%" %source%
TOC of the extracted CD
     Track |   Start  |  Length  | Start sector | End sector
    ---------------------------------------------------------
        1  |  0:00.00 |  3:26.47 |         0    |    15496
        2  |  3:26.47 |  3:44.04 |     15497    |    32300
        3  |  7:10.51 |  3:30.66 |     32301    |    48116
        4  | 10:41.42 |  3:05.12 |     48117    |    62003
        5  | 13:46.54 |  3:45.49 |     62004    |    78927
        6  | 17:32.28 |  3:08.09 |     78928    |    93036
        7  | 20:40.37 |  3:39.04 |     93037    |   109465
        8  | 24:19.41 |  3:41.08 |    109466    |   126048
        9  | 28:00.49 |  3:02.00 |    126049    |   139698
       10  | 31:02.49 |  4:31.66 |    139699    |   160089
       11  | 35:34.40 |  2:51.09 |    160090    |   172923
       12  | 38:25.49 |  3:00.70 |    172924    |   186493
       13  | 41:26.44 |  3:32.48 |    186494    |   202441
       14  | 44:59.17 |  2:55.31 |    202442    |   215597
       15  | 47:54.48 |  3:06.14 |    215598    |   229561
       16  | 51:00.62 |  2:50.05 |    229562    |   242316
       17  | 53:50.67 |  3:24.30 |    242317    |   257646
Range status and errors
Selected range
     Filename H:\dafnaplus\Nazareth\1977 Expect No Mercy\Nazareth - Expect No Mercy (AIRAC-1208).wav
     Peak level 96.6 %
     Extraction speed 8.2 X
     Range quality 100.0 %
     Test CRC B162B156
     Copy CRC B162B156
     Copy OK
No errors occurred
AccurateRip summary
Track  1  accurately ripped (confidence 2)  [3F2F6C9E]  (AR v1)
Track  2  accurately ripped (confidence 2)  [E828F90C]  (AR v1)
Track  3  accurately ripped (confidence 2)  [1BF6D0BE]  (AR v1)
Track  4  accurately ripped (confidence 2)  [66E4ECF9]  (AR v1)
Track  5  accurately ripped (confidence 2)  [1C108A19]  (AR v1)
Track  6  accurately ripped (confidence 2)  [A0262C02]  (AR v1)
Track  7  accurately ripped (confidence 2)  [9F82F1D0]  (AR v1)
Track  8  accurately ripped (confidence 2)  [CF3B9922]  (AR v1)
Track  9  accurately ripped (confidence 2)  [AD9C97C0]  (AR v1)
Track 10  accurately ripped (confidence 2)  [876D06B4]  (AR v1)
Track 11  accurately ripped (confidence 2)  [E0E3947F]  (AR v1)
Track 12  accurately ripped (confidence 2)  [A58821FB]  (AR v1)
Track 13  accurately ripped (confidence 2)  [0466AC55]  (AR v1)
Track 14  accurately ripped (confidence 2)  [463D8DD3]  (AR v1)
Track 15  accurately ripped (confidence 2)  [CBA65B4C]  (AR v1)
Track 16  accurately ripped (confidence 2)  [EEB8D116]  (AR v1)
Track 17  accurately ripped (confidence 2)  [DC517FB6]  (AR v1)
All tracks accurately ripped
End of status report
---- CUETools DB Plugin V2.1.6
[CTDB TOCID: ubZXY4AyUbfyQFEdp8XGhpz98m0-] found
Submit result: ubZXY4AyUbfyQFEdp8XGhpz98m0- has been confirmed
Track | CTDB Status
  1   | (1/1) Accurately ripped
  2   | (1/1) Accurately ripped
  3   | (1/1) Accurately ripped
  4   | (1/1) Accurately ripped
  5   | (1/1) Accurately ripped
  6   | (1/1) Accurately ripped
  7   | (1/1) Accurately ripped
  8   | (1/1) Accurately ripped
  9   | (1/1) Accurately ripped
10   | (1/1) Accurately ripped
11   | (1/1) Accurately ripped
12   | (1/1) Accurately ripped
13   | (1/1) Accurately ripped
14   | (1/1) Accurately ripped
15   | (1/1) Accurately ripped
16   | (1/1) Accurately ripped
17   | (1/1) Accurately ripped

содержание индексной карты *cue

REM GENRE Rock
REM DATE 2006
REM DISCID DB0D6B11
REM COMMENT "ExactAudioCopy v1.0b6"
PERFORMER "Nazareth"
TITLE "Expect No Mercy (AIRAC-1208)"
FILE "Nazareth - Expect No Mercy (AIRAC-1208).flac" WAVE
  TRACK 01 AUDIO
    TITLE "Expect No Mercy"
    PERFORMER "Nazareth"
    ISRC GBCBR0401415
    INDEX 01 00:00:00
  TRACK 02 AUDIO
    TITLE "Gone Dead Train"
    PERFORMER "Nazareth"
    ISRC GBCBR0401416
    INDEX 01 03:26:47
  TRACK 03 AUDIO
    TITLE "Shot Me Down"
    PERFORMER "Nazareth"
    ISRC GBCBR0401417
    INDEX 01 07:10:51
  TRACK 04 AUDIO
    TITLE "Revenge Is Sweet"
    PERFORMER "Nazareth"
    ISRC GBCBR0401418
    INDEX 01 10:41:42
  TRACK 05 AUDIO
    TITLE "Gimme What's Mine"
    PERFORMER "Nazareth"
    ISRC GBCBR0401419
    INDEX 01 13:46:54
  TRACK 06 AUDIO
    TITLE "Kentucky Fried Blues"
    PERFORMER "Nazareth"
    ISRC GBCBR0401420
    INDEX 01 17:32:28
  TRACK 07 AUDIO
    TITLE "New York Broken Toy"
    PERFORMER "Nazareth"
    ISRC GBCBR0401421
    INDEX 01 20:40:37
  TRACK 08 AUDIO
    TITLE "Busted"
    PERFORMER "Nazareth"
    ISRC GBCBR0401422
    INDEX 01 24:19:41
  TRACK 09 AUDIO
    TITLE "Place In Your Heart"
    PERFORMER "Nazareth"
    ISRC GBCBR0401423
    INDEX 01 28:00:49
  TRACK 10 AUDIO
    TITLE "All The King's Horses"
    PERFORMER "Nazareth"
    ISRC GBCBR0401424
    INDEX 01 31:02:49
  TRACK 11 AUDIO
    TITLE "Greens"
    PERFORMER "Nazareth"
    ISRC GBCBR0402122
    INDEX 00 35:29:32
    INDEX 01 35:34:40
  TRACK 12 AUDIO
    TITLE "Desolation Road"
    PERFORMER "Nazareth"
    ISRC GBCBR0402123
    INDEX 01 38:25:49
  TRACK 13 AUDIO
    TITLE "Gone Dead Train (Edit Version)"
    PERFORMER "Nazareth"
    ISRC GBCBR0402124
    INDEX 01 41:26:44
  TRACK 14 AUDIO
    TITLE "Expect No Mercy (Alternate Version)"
    PERFORMER "Nazareth"
    ISRC GBCBR0402125
    INDEX 01 44:59:17
  TRACK 15 AUDIO
    TITLE "Place In Your Heart (Alternate Version)"
    PERFORMER "Nazareth"
    ISRC GBCBR0402126
    INDEX 01 47:54:48
  TRACK 16 AUDIO
    TITLE "Kentucky Fried Blues (Edit Version)"
    PERFORMER "Nazareth"
    ISRC GBCBR0402127
    INDEX 01 51:00:62
  TRACK 17 AUDIO
    TITLE "Expect No Mercy (Live Version)"
    PERFORMER "Nazareth"
    ISRC GBCBR0402128
    INDEX 01 53:50:67

1978 - No Mean City

Год выпуска: 2006
Лейбл издания: AIRAC (AMR ARHIVE)
Номер по каталогу: R - 0640634
Продолжительность: 00:57:45
Страна производитель диска: JAPAN


01.Just To Get Into It (04:23)
02.May The Sunshine (04:56)
03.Simple Solution (Parts 1 & 2) (05:00)
04.Star (04:56)
05.Claim To Fame (04:30)
06.Whatever You Want Babe (03:42)
07.What's In It For Me (04:20)
08.No Mean City (Parts 1 & 2) (06:37)
09.May The Sunshine (Single Edit Version) (03:33)
10.Whatever You Want Babe (Single Edit Version) (03:01)
11.Star (US Version) (04:57)
12.No Mean City (Alternate Edit Version) (03:35)
13.Simple Solution (Edit Version) (04:21)

лог создания рипа

Exact Audio Copy V1.0 beta 6 from 9. April 2015
EAC extraction logfile from 23. April 2015, 16:18
Nazareth  / No Mean City (AIRAC-1209)
Used drive  : PLEXTOR DVDR   PX-891SA   Adapter: 1  ID: 0
Read mode               : Secure
Utilize accurate stream : Yes
Defeat audio cache      : Yes
Make use of C2 pointers : No
Read offset correction                      : 6
Overread into Lead-In and Lead-Out          : No
Fill up missing offset samples with silence : Yes
Delete leading and trailing silent blocks   : No
Null samples used in CRC calculations       : Yes
Used interface                              : Native Win32 interface for Win NT & 2000
Used output format              : User Defined Encoder
Selected bitrate                : 1024 kBit/s
Quality                         : High
Add ID3 tag                     : No
Command line compressor         : C:\Program Files\Exact Audio Copy\Flac\flac.exe
Additional command line options :  -V -8 -T "Genre=%genre%" -T "Artist=%artist%" -T "Title=%title%" -T "Album=%albumtitle%" -T "Date=%year%" -T "Tracknumber=%tracknr%" -T "Comment=%comment%" %source%
TOC of the extracted CD
     Track |   Start  |  Length  | Start sector | End sector
    ---------------------------------------------------------
        1  |  0:00.00 |  4:22.71 |         0    |    19720
        2  |  4:22.71 |  4:55.24 |     19721    |    41869
        3  |  9:18.20 |  4:59.21 |     41870    |    64315
        4  | 14:17.41 |  4:55.26 |     64316    |    86466
        5  | 19:12.67 |  4:29.67 |     86467    |   106708
        6  | 23:42.59 |  3:41.49 |    106709    |   123332
        7  | 27:24.33 |  4:19.49 |    123333    |   142806
        8  | 31:44.07 |  6:36.09 |    142807    |   172515
        9  | 38:20.16 |  3:32.38 |    172516    |   188453
       10  | 41:52.54 |  3:00.25 |    188454    |   201978
       11  | 44:53.04 |  4:56.62 |    201979    |   224240
       12  | 49:49.66 |  3:34.16 |    224241    |   240306
       13  | 53:24.07 |  4:20.04 |    240307    |   259810
Range status and errors
Selected range
     Filename H:\dafnaplus\Nazareth\1978 No Mean City\Nazareth  - No Mean City (AIRAC-1209).wav
     Peak level 96.6 %
     Extraction speed 8.2 X
     Range quality 100.0 %
     Test CRC AD6A1AF7
     Copy CRC AD6A1AF7
     Copy OK
No errors occurred
AccurateRip summary
Track  1  accurately ripped (confidence 2)  [7866BC65]  (AR v1)
Track  2  accurately ripped (confidence 2)  [14D6B7B8]  (AR v1)
Track  3  accurately ripped (confidence 2)  [F2A1E571]  (AR v1)
Track  4  accurately ripped (confidence 2)  [CC821F8E]  (AR v1)
Track  5  accurately ripped (confidence 2)  [9229F317]  (AR v1)
Track  6  accurately ripped (confidence 2)  [47F7DFEC]  (AR v1)
Track  7  accurately ripped (confidence 2)  [7E7E2F80]  (AR v1)
Track  8  accurately ripped (confidence 2)  [7151842E]  (AR v1)
Track  9  accurately ripped (confidence 2)  [B287EC2E]  (AR v1)
Track 10  accurately ripped (confidence 2)  [691363C9]  (AR v1)
Track 11  accurately ripped (confidence 2)  [D29A98B0]  (AR v1)
Track 12  accurately ripped (confidence 2)  [718FAEB8]  (AR v1)
Track 13  accurately ripped (confidence 2)  [1C40BBD0]  (AR v1)
All tracks accurately ripped
End of status report
---- CUETools DB Plugin V2.1.6
[CTDB TOCID: pIMSeAxd.hjRbji1hwxFgwaEbOU-] found
Submit result: pIMSeAxd.hjRbji1hwxFgwaEbOU- has been confirmed
Track | CTDB Status
  1   | (1/1) Accurately ripped
  2   | (1/1) Accurately ripped
  3   | (1/1) Accurately ripped
  4   | (1/1) Accurately ripped
  5   | (1/1) Accurately ripped
  6   | (1/1) Accurately ripped
  7   | (1/1) Accurately ripped
  8   | (1/1) Accurately ripped
  9   | (1/1) Accurately ripped
10   | (1/1) Accurately ripped
11   | (1/1) Accurately ripped
12   | (1/1) Accurately ripped
13   | (1/1) Accurately ripped

содержание индексной карты *cue

REM GENRE Rock
REM DATE 2006
REM DISCID AF0D880D
REM COMMENT "ExactAudioCopy v1.0b6"
PERFORMER "Nazareth "
TITLE "No Mean City (AIRAC-1209)"
FILE "Nazareth  - No Mean City (AIRAC-1209).flac" WAVE
  TRACK 01 AUDIO
    TITLE "Just To Get Into It"
    PERFORMER "Nazareth "
    ISRC GBCBR0402426
    INDEX 01 00:00:00
  TRACK 02 AUDIO
    TITLE "May The Sunshine"
    PERFORMER "Nazareth "
    ISRC GBCBR0402427
    INDEX 01 04:22:71
  TRACK 03 AUDIO
    TITLE "Simple Solution (Parts 1 & 2)"
    PERFORMER "Nazareth "
    ISRC GBCBR0402428
    INDEX 01 09:18:20
  TRACK 04 AUDIO
    TITLE "Star"
    PERFORMER "Nazareth "
    ISRC GBCBR0402429
    INDEX 01 14:17:41
  TRACK 05 AUDIO
    TITLE "Claim To Fame"
    PERFORMER "Nazareth "
    ISRC GBCBR0402430
    INDEX 01 19:12:67
  TRACK 06 AUDIO
    TITLE "Whatever You Want Babe"
    PERFORMER "Nazareth "
    ISRC GBCBR0402431
    INDEX 01 23:42:59
  TRACK 07 AUDIO
    TITLE "What's In It For Me"
    PERFORMER "Nazareth "
    ISRC GBCBR0402432
    INDEX 01 27:24:33
  TRACK 08 AUDIO
    TITLE "No Mean City (Parts 1 & 2)"
    PERFORMER "Nazareth "
    ISRC GBCBR0402433
    INDEX 01 31:44:07
  TRACK 09 AUDIO
    TITLE "May The Sunshine (Single Edit Version)"
    PERFORMER "Nazareth "
    ISRC GBCBR0402434
    INDEX 00 38:15:12
    INDEX 01 38:20:16
  TRACK 10 AUDIO
    TITLE "Whatever You Want Babe (Single Edit Version)"
    PERFORMER "Nazareth "
    ISRC GBCBR0402435
    INDEX 01 41:52:54
  TRACK 11 AUDIO
    TITLE "Star (US Version)"
    PERFORMER "Nazareth "
    ISRC GBCBR0402436
    INDEX 01 44:53:04
  TRACK 12 AUDIO
    TITLE "No Mean City (Alternate Edit Version)"
    PERFORMER "Nazareth "
    ISRC GBCBR0402437
    INDEX 01 49:49:66
  TRACK 13 AUDIO
    TITLE "Simple Solution (Edit Version)"
    PERFORMER "Nazareth "
    ISRC GBCBR0402504
    INDEX 01 53:24:07
--Не забываем говорить
[Профиль] [ЛС]
Показать сообщения:    

Текущее время: Сегодня 13:58

Часовой пояс: GMT



Вы не можете начинать темы
Вы не можете отвечать на сообщения
Вы не можете редактировать свои сообщения
Вы не можете удалять свои сообщения
Вы не можете голосовать в опросах
Вы не можете прикреплять файлы к сообщениям
Вы не можете скачивать файлы