National Geographic: Дикое меню / Wild Menu / 5 серий из 26 [2014, Документальный, познавательный, HDTV 1080i]

 
Автор Сообщение

TorrentFilm ®

Пол:

Стаж: 2 года

Сообщений: 7741



Награды: Нет

Торрент-статистика

Создавать темы 01-Июл-2015 00:10

[Цитировать]

Дикое менюWild Menu
-Год выпуска: 2014
Страна: Испания, Китай
Производство: CINTV and LIC China coproduction
Режиссёр: Juan Antonio Rodriguez
Жанр: Документальный, познавательный, природа, животный мир
Продолжительность: 5 x 00:21:59-Перевод: Студийный (одноголосый) [студия Велес - Михаил Хрусталёв]
Русские субтитры: нет-Описание: У нас, животных, очень мало насущных потребностей: сон, размножение, воздух, вода, но самое главное - еда, еда и еда! Мы, животные - голодное племя. Ежедневно мы поедаем половину планеты: растения, цветы, плоды, насекомых, рыбу, птиц, а также свежее или протухшее мясо. Множество живых существ хватают, жуют и проглатывают многие миллионы других голодных созданий. Мы все обедаем в ресторане под названием "Планета Земля". Самое забавное в этом ресторане - мы все посетители и главное блюдо одновременно. Сначала едим мы, затем сами попадаем в меню. Этот природный ресторан для животных открыт круглосуточно. Добро пожаловать и приятного аппетита!-Источник записи: HDTV-запись с телеканала Nat Geo Wild HD от san007-Тип релиза: HDTV 1080i
Контейнер: MKV-Видео: AVC H.264, 1920x1080i (16:9), 50i fps, ~9700 kbps, ~0.18,7 bits/pixel
Аудио 1: Russian, MP2, 48KHz, Stereo (2 channels), 192 kbps
Аудио 2: English, MP2, 48KHz, Stereo (2 channels), 192 kbps-

Раздача в HDTVRip 720p

Список эпизодов

E01 Restaurant Earth / Ресторан Земля
E02 Crunchy Insects / Хрустящие насекомые
E03 The Fruit of Temptation / Плод искушения
E04 Very Old Meat / Очень несвежее мясо
E05 Pasta / Макароны

E06 The Big Buffet / Большой шведский стол
E07 Assorted Salads / Салаты в ассортименте
E08 Beach Bar / Пляжная закусочная
E09 Children's Menu / Детское питание
E10 Fresh Meat / Свежее мясо
E11 Sushi Mix / Рыбное ассорти
E12 Unique Utensils / Столовые приборы
E13 Delicatessen / Кулинария
E14 Eating With Your Hands / Еда руками
E15 Cheers! / Ваше здоровье!
E16 Autumn Fruit / Осенние плоды
E17 Soups / Супы
E18 Frog Kitchen / Лягушачья кухня
E19 Fresh Seafood / Дары моря
E20 Tapas / Закуски
E21 Lovers Menu / Меню для влюблённых
E22 Sweet Flowers / Сладкие цветы
E23 Feast or Famine / Пир или голод
E24 Dining Companions / Товарищи по застолью
E25 Table Manners / Правила поведения за столом
E26 Waste Not, Want Not / Жизнь без отходов

MediaInfo

Format : Matroska
Format version : Version 4 / Version 2
File size : 1.58 GiB
Duration : 21mn 59s
Overall bit rate mode : Variable
Overall bit rate : 10.3 Mbps
Writing application : mkvmerge v7.7.0 ('Six Voices') 64bit
Writing library : libebml v1.3.1 + libmatroska v1.4.2
Video #1
ID : 1
Format : AVC
Format/Info : Advanced Video Codec
Format profile : High@L4.0
Format settings, CABAC : Yes
Format settings, ReFrames : 4 frames
Codec ID : V_MPEG4/ISO/AVC
Duration : 21mn 59s
Bit rate mode : Variable
Bit rate : 9 698 Kbps
Maximum bit rate : 40.0 Mbps
Width : 1 920 pixels
Height : 1 080 pixels
Display aspect ratio : 16:9
Frame rate mode : Constant
Frame rate : 25.000 fps
Color space : YUV
Chroma subsampling : 4:2:0
Bit depth : 8 bits
Scan type : MBAFF
Bits/(Pixel*Frame) : 0.187
Stream size : 1.49 GiB (94%)
Default : Yes
Forced : No
Color primaries : BT.709
Transfer characteristics : BT.709
Matrix coefficients : BT.709
Audio #2
ID : 2
Format : MPEG Audio
Format version : Version 1
Format profile : Layer 2
Codec ID : A_MPEG/L2
Codec ID/Hint : MP2
Duration : 21mn 59s
Bit rate mode : Constant
Bit rate : 192 Kbps
Channel(s) : 2 channels
Sampling rate : 48.0 KHz
Compression mode : Lossy
Stream size : 30.2 MiB (2%)
Title : Russian
Language : Russian
Default : Yes
Forced : No
Audio #3
ID : 3
Format : MPEG Audio
Format version : Version 1
Format profile : Layer 2
Codec ID : A_MPEG/L2
Codec ID/Hint : MP2
Duration : 21mn 59s
Bit rate mode : Constant
Bit rate : 192 Kbps
Channel(s) : 2 channels
Sampling rate : 48.0 KHz
Compression mode : Lossy
Stream size : 30.2 MiB (2%)
Title : English
Language : English
Default : No
Forced : No
[Профиль] [ЛС]
Кто просматривает тему:

Форум Тема Автор Размер
Trance, Goa, Psy, Ambient (Goa Trance) VA - Spiral Trax: International Goa & Progressive Trance Vol.3 (Spiral Trax [SPITCD045]) - 2016, MP3, 320 kbps Kuzmich47 365 MB
National Geographic National Geographic. Спасти планету / Before the Flood (2016) WEBRip от ExKinoRay | D Zithylord 1.37 GB
National Geographic National Geographic: Апокалипсис: Первая мировая война / Apocalypse: World War I [01-05 из 05] (2014) HDTVRip sergej644 3.22 GB
Документальные HD National Geographic: Дикое меню / Wild Menu / 5 серий из 26 [2014, Документальный, познавательный, HDTVRip 720p] TorrentFilm 3.59 GB
National Geographic National Geographic: Золото Юкона / Yukon Gold / 1 сезон / 1 серия из (10)[2013, Реалити, ТВ-Шоу, HDTVRip-AVC 1080p] TorrentFilm 1.93 GB
Документальные HD Дикая Флорида / Wildes Florida (Вирджиния Сомма / Virginia Somma) [2013, Документальный, научно-познавательный, природа, флора, фауна, BDRemux 1080i] National Geographic TorrentFilm 19.06 GB
National Geographic Дикий Запад / National Geographic: The Wild West (Энди Митчел / Andy Mitchell) [2013, Документальный, BDRip] reversefile 2.17 GB
Документальные HD Проверь себя. Фильм 01 (Из 03) (National Geographic) [2011, Документальный, HDTV 1080i] TorrentFilm 7.43 GB
Показать сообщения:    

Текущее время: Сегодня 06:14

Часовой пояс: GMT



Вы не можете начинать темы
Вы не можете отвечать на сообщения
Вы не можете редактировать свои сообщения
Вы не можете удалять свои сообщения
Вы не можете голосовать в опросах
Вы не можете прикреплять файлы к сообщениям
Вы не можете скачивать файлы